<?xml version="1.0" standalone="no"?>
<!DOCTYPE svg PUBLIC "-//W3C//DTD SVG 1.1//EN" "http://www.w3.org/Graphics/SVG/1.1/DTD/svg11.dtd" >
<svg xmlns="http://www.w3.org/2000/svg" xmlns:xlink="http://www.w3.org/1999/xlink" version="1.1">
<metadata></metadata>
<defs>
<font id="konigsbergregular" horiz-adv-x="200" >
<font-face units-per-em="2048" ascent="1638" descent="-410" />
<missing-glyph horiz-adv-x="325" />
<glyph unicode="&#xd;" horiz-adv-x="508" />
<glyph horiz-adv-x="0" />
<glyph unicode=" "  horiz-adv-x="325" />
<glyph unicode="&#x09;" horiz-adv-x="325" />
<glyph unicode="&#xa0;" horiz-adv-x="325" />
<glyph unicode="!" horiz-adv-x="478" d="M49 1382q-38 -37 -38 -91v-790q0 -53 38 -91q37 -38 91 -38q53 0 91 38q37 38 37 91v790q0 54 -37 91q-38 38 -91 38q-54 0 -91 -38zM41 238q-41 -40 -41 -98q0 -59 41 -99q40 -41 99 -41q57 0 97 41q42 40 42 99q0 58 -42 98q-40 41 -97 41q-59 0 -99 -41z" />
<glyph unicode="&#x22;" horiz-adv-x="776" d="M38 1380q-38 -38 -38 -91v-200q0 -54 38 -91q37 -38 91 -38q53 0 90 38q38 37 38 91v200q0 53 -38 91q-37 38 -90 38q-54 0 -91 -38zM357 1380q-38 -38 -38 -91v-200q0 -54 38 -91q37 -38 91 -38q53 0 90 38q38 37 38 91v200q0 53 -38 91q-37 38 -90 38q-54 0 -91 -38z " />
<glyph unicode="#" horiz-adv-x="1108" d="M515 585h-158l36 248h158zM808 833q41 0 70 28q30 29 30 69t-30 69q-29 28 -70 28h-27l43 300q6 39 -19 71t-66 38t-74 -18q-33 -25 -39 -64l-47 -327h-158l44 300q5 39 -20 71t-66 38t-74 -18q-33 -25 -39 -64l-47 -327h-55q-41 0 -70 -28q-30 -29 -30 -69t30 -69 q29 -28 70 -28h27l-36 -248h-55q-41 0 -71 -28q-29 -29 -29 -69t29 -69q30 -28 71 -28h27l-44 -300q-6 -39 19 -71t66 -38t74 18q33 25 39 64l48 327h158l-44 -300q-6 -39 19 -71t66 -38t74 18q33 25 39 64l48 327h54q42 0 71 28q29 29 29 69t-29 69q-29 28 -71 28h-26 l36 248h55z" />
<glyph unicode="$" horiz-adv-x="982" d="M399 817l5 -1l-3 1h-3q-61 4 -97 36q-37 32 -33 77q2 38 31 63q42 36 113 31q52 -4 98 -47q39 -36 92 -34q53 1 89 40q37 39 35 92q-2 54 -41 90q-103 97 -231 113v33q0 26 -19 45t-46 19q-26 0 -45 -19t-19 -45v-35q-114 -19 -194 -89q-110 -95 -120 -239 q-11 -153 95 -264q105 -111 273 -123h-5h3q1 0 4 -1q56 -4 99 -32q16 -10 23 -24q10 -21 8 -57q-3 -37 -32 -62q-41 -36 -113 -31q-59 4 -94 39q-37 38 -91 38q-53 1 -91 -37q-38 -37 -38 -91q0 -53 37 -91q95 -96 236 -112v-36q0 -26 19 -45t45 -19q27 0 46 19t19 45v38 q113 18 194 88q109 95 119 239q15 208 -146 314q-99 65 -222 74z" />
<glyph unicode="%" horiz-adv-x="1984" d="M1157 1425q-50 -16 -75 -64l-616 -1192q-24 -47 -8 -98t64 -75q47 -25 98 -9q50 17 75 64l616 1193q24 47 8 98q-16 50 -64 75q-47 24 -98 8zM297 943q-40 40 -40 96t40 95q40 40 96 40t95 -40q40 -39 40 -95t-40 -96q-39 -40 -95 -40t-96 40zM670 1316 q-115 115 -277 115q-163 0 -278 -115t-115 -277q0 -163 115 -278t278 -115q162 0 277 115t115 278q0 162 -115 277zM1295 278q-39 40 -39 96t39 96q40 39 96 39t96 -39q39 -40 39 -96t-39 -96q-40 -39 -96 -39t-96 39zM1114 651q-115 -115 -115 -277t115 -278 q115 -115 277 -115t277 115q116 116 116 278t-116 277q-115 115 -277 115t-277 -115z" />
<glyph unicode="&#x26;" horiz-adv-x="1323" d="M783 637q-27 -39 -49 -93q-9 -21 -17 -45l-6 -20l-6 -18l-4 -15q-37 -118 -80 -156q-76 -67 -194 -48q-25 4 -48 12q-32 10 -56 28q-66 47 -66 134q0 71 50 123q49 51 120 55h5h5q83 0 117 76t-21 138q-39 44 -97 44h-5l-4 -1q-65 4 -109 52q-45 47 -45 112q0 68 48 116 t116 48q50 0 91 -27t61 -73q20 -49 70 -69q49 -20 98 1q49 20 69 70q20 49 -1 98q-49 117 -155 187q-106 71 -233 71q-174 0 -298 -124q-123 -124 -123 -298q0 -166 115 -288q-131 -129 -131 -311q0 -165 107 -283q106 -118 280 -145q111 -18 219 11q107 29 185 99 q97 85 155 271l5 17l2 6l2 6l5 15q6 19 12 34q15 41 27 49q53 3 88 43q36 40 33 93t-43 88q-40 36 -93 33q-125 -7 -201 -116z" />
<glyph unicode="'" horiz-adv-x="457" d="M38 1380q-38 -38 -38 -91v-200q0 -54 38 -91q37 -38 91 -38q53 0 90 38q38 37 38 91v200q0 53 -38 91q-37 38 -90 38q-54 0 -91 -38z" />
<glyph unicode="(" horiz-adv-x="802" d="M441 1797q-52 -10 -82 -54q-359 -527 -358 -1081q1 -555 361 -1037q32 -43 85 -51q53 -7 95 25q43 32 51 84q7 53 -25 96q-312 418 -311 888q0 470 315 931q30 44 20 97q-10 52 -54 82t-97 20z" />
<glyph unicode=")" horiz-adv-x="802" d="M64 1777q-44 -30 -54 -82q-10 -53 20 -97q315 -461 315 -931q1 -470 -311 -888q-32 -43 -25 -96q8 -52 51 -84q42 -32 95 -25q53 8 85 51q360 482 361 1037q1 554 -358 1081q-30 44 -82 54q-53 10 -97 -20z" />
<glyph unicode="*" horiz-adv-x="874" d="M607 1458q-30 5 -55 -13l-135 -99v168q0 31 -22 53t-53 22v0q-31 0 -53 -22t-22 -53v-171l-145 103q-26 17 -56 12t-48 -30t-13 -56q5 -30 31 -48l193 -136l-143 -150q-21 -23 -20 -53q1 -31 23 -53q23 -21 53 -20q31 1 52 23l148 156l147 -156q21 -22 52 -23t54 20 q22 22 23 53q1 30 -21 53l-143 151l186 136q25 18 30 48q4 31 -14 56t-49 29z" />
<glyph unicode="+" horiz-adv-x="1000" d="M529 865v142q0 54 -38 91q-38 38 -91 38t-91 -38q-38 -37 -38 -91v-142h-142q-54 0 -91 -38q-38 -38 -38 -91t38 -91q37 -38 91 -38h142v-142q0 -54 38 -91q38 -38 91 -38t91 38q38 37 38 91v142h142q54 0 91 38q38 38 38 91t-38 91q-37 38 -91 38h-142z" />
<glyph unicode="," horiz-adv-x="586" d="M212 251q-52 -15 -77 -62l-110 -200q-25 -47 -10 -98q14 -51 61 -77q47 -25 98 -10q51 14 77 61l109 201q26 46 11 98q-15 51 -62 76q-46 26 -97 11z" />
<glyph unicode="-" horiz-adv-x="1000" d="M129 864q-54 0 -91 -38q-38 -37 -38 -90q0 -54 38 -91q37 -38 91 -38h542q54 0 91 38q38 37 38 91q0 53 -38 90q-37 38 -91 38h-542z" />
<glyph unicode="." horiz-adv-x="479" d="M41 238q-41 -40 -41 -98q0 -59 41 -99q40 -41 99 -41q58 0 98 41q41 40 41 99q0 58 -41 98q-40 41 -98 41q-59 0 -99 -41z" />
<glyph unicode="/" horiz-adv-x="702" d="M390 1417q52 -10 82 -55q30 -44 19 -96l-228 -1162q-10 -52 -55 -82q-44 -30 -96 -19q-52 10 -82 54t-19 97l228 1161q10 53 55 82q44 30 96 20z" />
<glyph unicode="0" horiz-adv-x="1128" d="M928 452v-3v1v2zM319 302q-61 65 -62 157v506q1 91 62 155q60 65 145 65t146 -65q60 -65 61 -157v-10v10v-505q-1 -91 -62 -156q-60 -65 -145 -65t-145 65zM928 969q-3 196 -139 334q-135 139 -325 139t-326 -139q-136 -140 -138 -337v-508q2 -198 138 -338t326 -140 t326 139q135 139 138 335v515zM928 969v-4v5v-1zM928 974v1v-5v4z" />
<glyph unicode="1" horiz-adv-x="580" d="M129 1419q-54 0 -91 -38q-38 -37 -38 -91q0 -51 36 -88q35 -37 87 -40v-1033q0 -54 37 -91q38 -38 91 -38t91 38q38 37 38 91v1161q0 54 -38 91q-38 38 -91 38h-122z" />
<glyph unicode="2" horiz-adv-x="1101" d="M429 257l343 463q-1 -2 -3 -5l3 5q124 166 92 363q-30 182 -179 286q-152 106 -344 69t-309 -195q-32 -43 -24 -95q7 -53 50 -85t95 -24q53 8 85 51q56 75 144 95t156 -27q60 -42 72 -116q15 -89 -44 -168l3 3q-8 -11 -372 -500l-127 -172q-47 -63 -12 -134 q36 -71 115 -71h600q53 0 91 38q37 37 37 91q0 53 -37 91q-38 37 -91 37h-344z" />
<glyph unicode="3" horiz-adv-x="1059" d="M843 1017q0 174 -124 298q-123 123 -297 123q-128 0 -233 -70q-106 -70 -156 -187q-20 -49 0 -99q20 -49 69 -70q49 -20 98 0t70 69q20 45 61 73q41 27 91 27q68 0 116 -48t48 -116q0 -65 -45 -113q-44 -47 -109 -51h-10q-57 0 -96 -43q-25 -28 -31 -66t10 -72 q34 -77 117 -77l5 1h5q71 -4 120 -56q50 -51 50 -123q0 -74 -53 -126q-52 -53 -127 -53q-54 0 -99 30q-44 30 -66 80q-20 49 -70 69q-49 20 -98 -1t-69 -70q-20 -50 1 -99q51 -121 160 -193q110 -73 241 -73q181 0 309 128t128 308q0 183 -131 311q115 122 115 289z" />
<glyph unicode="4" horiz-adv-x="1353" d="M404 433l343 465v-465h-343zM1004 433v857q0 42 -25 76q-24 34 -64 47q-39 13 -79 0t-64 -46l-725 -987q-47 -63 -12 -134q36 -71 115 -71h597v-46q0 -54 37 -91q38 -38 91 -38q54 0 91 38q38 37 38 91v46h21q53 0 91 38q37 38 37 91t-37 91q-38 38 -91 38h-21z" />
<glyph unicode="5" horiz-adv-x="1108" d="M285 931v229h418q53 0 91 38t38 91t-38 91t-91 38h-546q-54 0 -91 -38q-38 -38 -38 -91v-487q0 -53 38 -91q37 -38 91 -38h280q88 0 151 -62q63 -63 63 -152q0 -88 -63 -151q-62 -63 -151 -63q-58 0 -108 30q-51 29 -79 80q-26 46 -77 60q-52 15 -98 -11q-47 -26 -61 -78 q-14 -51 12 -97q62 -112 173 -176q110 -65 238 -65q195 0 333 138t138 333t-138 333q-138 139 -333 139h-152z" />
<glyph unicode="6" horiz-adv-x="1116" d="M316 310q-58 61 -58 148t58 149q59 62 142 62t142 -62t59 -149t-59 -148q-59 -62 -142 -62t-142 62zM363 915q105 185 299 263q49 20 70 70q20 49 0 98t-69 70t-98 1q-343 -140 -484 -495q-48 -121 -68 -257q-8 -49 -11 -97l-2 -36v-27v-28v-10q0 -5 1 -8l-1 -1 q0 -193 135 -330q134 -137 323 -137t324 137q134 137 134 330q0 194 -134 331q-135 137 -324 137q-48 0 -95 -11z" />
<glyph unicode="7" horiz-adv-x="1104" d="M129 1419q-54 0 -91 -37q-38 -38 -38 -91t38 -91q37 -38 91 -38h456l-318 -994q-16 -51 9 -98q24 -47 75 -64q50 -16 98 9q47 24 63 75l372 1162q20 62 -19 115q-38 52 -104 52h-632z" />
<glyph unicode="8" horiz-adv-x="1061" d="M308 289q-51 51 -51 122q0 72 51 123t122 51q72 0 123 -51t51 -123q0 -71 -51 -122t-123 -51q-71 0 -122 51zM546 1133q49 -48 49 -116t-49 -116q-48 -49 -116 -49t-116 49q-48 48 -48 116t48 116t116 48t116 -48zM852 1017q0 174 -124 298q-123 123 -298 123 q-174 0 -297 -123q-124 -124 -124 -298q0 -173 122 -297q-131 -127 -131 -309q0 -178 126 -304t304 -126t305 126q126 126 126 304q0 182 -132 309q123 124 123 297z" />
<glyph unicode="9" horiz-adv-x="1116" d="M600 1119q58 -61 58 -148t-58 -149q-59 -62 -142 -62t-142 62t-59 149t59 148q59 62 142 62t142 -62zM553 514q-105 -185 -299 -263q-49 -20 -70 -70q-20 -49 0 -98t69 -70t98 -1q343 140 484 495q48 121 68 257q8 49 11 97l2 36v27v28v10q0 5 -1 8l1 1q0 193 -135 330 q-134 137 -323 137t-324 -137q-134 -137 -134 -330q0 -194 134 -331q135 -137 324 -137q48 0 95 11z" />
<glyph unicode=":" horiz-adv-x="479" d="M41 238q-41 -40 -41 -98q0 -59 41 -99q40 -41 99 -41q58 0 98 41q41 40 41 99q0 58 -41 98q-40 41 -98 41q-59 0 -99 -41zM41 1093q-41 -40 -41 -98q0 -59 41 -99q40 -41 99 -41q58 0 98 41q41 40 41 99q0 58 -41 98q-40 41 -98 41q-59 0 -99 -41z" />
<glyph unicode=";" horiz-adv-x="586" d="M212 251q-52 -15 -77 -62l-110 -200q-25 -47 -10 -98q14 -51 61 -77q47 -25 98 -10q51 14 77 61l109 201q26 46 11 98q-15 51 -62 76q-46 26 -97 11zM238 1134q58 0 97 -41q41 -40 41 -98q0 -59 -41 -99q-39 -41 -97 -41q-60 0 -99 41q-42 40 -42 99q0 58 42 98 q39 41 99 41z" />
<glyph unicode="&#x3c;" horiz-adv-x="1219" d="M917 1264q-51 15 -98 -10l-751 -403h-1q-67 -40 -67 -120q0 -67 68 -107l751 -403q47 -26 98 -10q51 15 76 62q26 47 10 98q-15 51 -62 76l-541 290l541 290q47 26 62 77q16 51 -10 97q-25 47 -76 63z" />
<glyph unicode="=" horiz-adv-x="914" d="M129 681q-54 0 -91 -38q-38 -37 -38 -90q0 -54 38 -91q37 -38 91 -38h457q53 0 91 38q37 37 37 91q0 53 -37 90q-38 38 -91 38h-457zM129 1047q-54 0 -91 -38q-38 -37 -38 -91q0 -53 38 -91q37 -37 91 -37h457q53 0 91 37q37 38 37 91q0 54 -37 91q-38 38 -91 38h-457z " />
<glyph unicode="&#x3e;" horiz-adv-x="1219" d="M26 1201q-26 -46 -10 -97q15 -51 62 -77l541 -290l-541 -290q-47 -25 -62 -76q-16 -51 10 -98q25 -47 76 -62q51 -16 98 10l751 403q68 40 68 107q0 80 -67 120h-1l-751 403q-47 25 -98 10q-51 -16 -76 -63z" />
<glyph unicode="?" horiz-adv-x="1030" d="M332 1431q-191 -30 -303 -205q-29 -45 -18 -97t56 -81q45 -28 97 -17t81 56q50 78 128 91q26 4 51 -1q33 -7 61 -30q45 -36 60 -98t-8 -120q-18 -48 -43 -73q-17 -16 -57 -39l-12 -7l-12 -8q-15 -9 -27 -18q-31 -22 -53 -50q-58 -73 -58 -190q0 -53 38 -91q37 -38 91 -38 q53 0 91 38q37 38 37 91q0 12 1 21l1 6l1 4q3 3 13 9l9 5l9 5l11 6l12 7q13 9 25 17q31 21 56 45q68 66 107 167q53 137 16 279q-36 143 -147 233q-139 112 -314 83zM300 238q-41 -40 -41 -98q0 -59 41 -99q40 -41 99 -41q58 0 98 41q41 40 41 99q0 58 -41 98q-40 41 -98 41 q-59 0 -99 -41z" />
<glyph unicode="@" horiz-adv-x="2334" d="M953 508q-48 47 -48 114t48 114q47 48 114 48q61 0 106 -41q46 -39 54 -99q-3 -30 -3 -61q-14 -53 -57 -88q-44 -35 -100 -35q-67 0 -114 48zM652 1605q-191 -81 -339 -229t-229 -339q-84 -198 -84 -415t84 -415q81 -191 229 -339t339 -229q198 -84 415 -84q53 0 91 38 q37 37 37 91q0 53 -37 90q-38 38 -91 38q-335 0 -572 238q-238 237 -238 572t238 572q237 238 572 238t572 -238q238 -237 238 -572q0 -184 -108 -240q-45 -23 -101 -18q-56 6 -101 38q-32 23 -53 56q-29 45 -33 105q5 33 5 59l-1 12v11q0 10 -1 19q-16 159 -135 268 q-120 109 -282 109q-173 0 -296 -123t-123 -296t123 -296t296 -123q140 0 252 85q42 -55 99 -95q104 -74 232 -85q127 -11 237 46q118 60 182 183q65 122 65 285q0 217 -84 415q-81 191 -229 339t-339 229q-198 84 -415 84t-415 -84z" />
<glyph unicode="A" horiz-adv-x="1526" d="M450 505l213 473l213 -473h-426zM334 248h653h2l3 1l77 -173q22 -48 72 -67t98 3q49 22 68 71q19 50 -3 99l-524 1162q-31 75 -117 75t-117 -75l-524 -1162q-22 -49 -3 -99q19 -49 67 -71q49 -22 99 -3q49 19 71 67z" />
<glyph unicode="B" horiz-adv-x="1275" d="M257 257v331h398q67 0 115 -49q48 -48 48 -116t-48 -117q-48 -48 -116 -49h-397zM720 896q-45 -46 -109 -46h-354v312h354q64 -1 109 -46q45 -46 45 -110t-45 -110zM1022 1006q0 169 -120 290q-120 122 -289 123h-458h-7l-6 -1l-7 1h-6q-54 0 -91 -38q-38 -37 -38 -91 v-1161q0 -54 38 -91q37 -38 91 -38h6l7 1l6 -1h7h504q171 2 294 126q122 124 122 297q0 193 -148 320q95 115 95 263z" />
<glyph unicode="C" horiz-adv-x="1463" d="M729 238q-195 0 -334 138q-138 139 -138 334t138 333q139 138 334 138q169 0 299 -108q42 -34 95 -29q53 6 86 47q34 41 29 94t-46 87q-201 166 -463 166q-302 0 -515 -213q-214 -214 -214 -515q0 -302 214 -515q213 -214 515 -214q281 0 489 189q40 36 42 89 q3 54 -33 93t-89 42q-53 2 -92 -33q-135 -123 -317 -123z" />
<glyph unicode="D" horiz-adv-x="1459" d="M257 257v905h295q185 -1 317 -134t132 -318t-131 -318q-132 -133 -318 -135h-295zM129 1419q-54 0 -91 -37q-38 -38 -38 -91v-2v-1159v-1q0 -54 38 -91q37 -38 91 -38h428q290 3 495 211q207 209 207 499q0 291 -207 499t-499 210h-424z" />
<glyph unicode="E" horiz-adv-x="1131" d="M802 1162q54 0 91 38q38 37 38 90q0 54 -38 91q-37 38 -91 38h-673q-54 0 -91 -38q-38 -37 -38 -91v-1161q0 -54 38 -91q37 -38 91 -38h673q54 0 91 38q38 37 38 91q0 53 -38 91q-37 37 -91 37h-545v327h414q54 0 91 38q38 37 38 91q0 53 -38 90q-37 38 -91 38h-414v321 h545z" />
<glyph unicode="F" horiz-adv-x="1131" d="M129 1419q-54 0 -91 -38q-38 -37 -38 -91v-1161q0 -54 38 -91q37 -38 91 -38q53 0 90 38q38 37 38 91v404h386q53 0 91 38q37 38 37 91t-37 91q-38 37 -91 37h-386v372h545q54 0 91 38q38 37 38 90q0 54 -38 91q-37 38 -91 38h-673z" />
<glyph unicode="G" horiz-adv-x="1461" d="M1041 687q-38 -37 -38 -91v-268q-123 -89 -274 -89q-195 0 -334 138q-138 139 -138 334t138 333q139 138 334 138q169 0 299 -108q42 -34 95 -29q53 6 86 47q34 41 29 94t-46 87q-201 166 -463 166q-302 0 -515 -213q-214 -214 -214 -515q0 -302 214 -515 q213 -214 515 -214q281 0 490 189q42 39 42 95v330q0 54 -38 91q-38 38 -91 38t-91 -38z" />
<glyph unicode="H" horiz-adv-x="1390" d="M971 1381q-38 -37 -38 -91v-450h-676v450q0 54 -38 91q-37 38 -90 38q-54 0 -91 -38q-38 -37 -38 -91v-1161q0 -54 38 -91q37 -38 91 -38q53 0 90 38q38 37 38 91v454h676v-454q0 -54 38 -91q38 -38 91 -38t91 38q37 37 37 91v1161q0 54 -37 91q-38 38 -91 38t-91 -38z " />
<glyph unicode="I" horiz-adv-x="457" d="M38 1381q-38 -37 -38 -91v-1161q0 -54 38 -91q37 -38 91 -38q53 0 90 38q38 37 38 91v1161q0 54 -38 91q-37 38 -90 38q-54 0 -91 -38z" />
<glyph unicode="J" horiz-adv-x="1145" d="M725 1381q-37 -37 -37 -91v-778q0 -110 -81 -188q-79 -78 -189 -78q-115 0 -195 84q-37 39 -90 40q-53 2 -92 -35q-38 -36 -40 -90q-1 -53 35 -92q156 -164 382 -164q216 0 370 153q154 152 157 368v780q0 54 -38 91q-38 38 -91 38t-91 -38z" />
<glyph unicode="K" horiz-adv-x="1231" d="M263 631l542 -590q37 -39 90 -41t92 34t41 89q3 54 -33 93l-462 501l460 485q37 39 36 92q-2 53 -41 90q-38 36 -91 35q-54 -1 -90 -40l-543 -573q-4 -4 -7 -8v493q0 53 -37 90q-38 38 -91 38q-54 0 -91 -38q-38 -37 -38 -90v-1162q0 -54 38 -91q37 -38 91 -38 q53 0 91 38q37 37 37 91v509q3 -4 6 -7z" />
<glyph unicode="L" horiz-adv-x="1045" d="M257 257v1033q0 54 -38 91q-37 38 -90 38q-54 0 -91 -38q-38 -37 -38 -91v-1161q0 -54 38 -91q37 -38 91 -38h588q53 0 91 38q37 37 37 91q0 53 -37 91q-38 37 -91 37h-460z" />
<glyph unicode="M" horiz-adv-x="1568" d="M1185 1407q-41 -19 -61 -59l-440 -879l-440 879q-20 40 -61 59t-84 9q-44 -11 -71 -46q-28 -35 -28 -80v-1161q0 -54 38 -91q37 -38 91 -38q53 0 90 38q38 37 38 91v618l306 -610q5 -14 11 -24q38 -61 109 -61q73 0 110 61q5 9 10 19l308 615v-618q0 -54 37 -91 q38 -38 91 -38q54 0 91 38q38 37 38 91v1161q0 45 -28 80t-71 46q-44 10 -84 -9z" />
<glyph unicode="N" horiz-adv-x="1390" d="M971 1382q-38 -38 -38 -91v-797l-704 877q-26 32 -65 43q-40 11 -78 -2q-39 -14 -62 -47q-24 -33 -24 -74v-1162q0 -54 38 -91q37 -38 91 -38q53 0 90 38q38 37 38 91v796l705 -877q25 -32 65 -43q39 -11 78 2q38 14 62 47q23 34 23 75v1162q0 53 -37 91q-38 37 -91 37 t-91 -37z" />
<glyph unicode="O" horiz-adv-x="1657" d="M395 375q-138 139 -138 334t138 333q139 138 334 138t333 -138t138 -333t-138 -334q-138 -138 -333 -138t-334 138zM214 1224q-214 -214 -214 -515q0 -302 214 -515q213 -214 515 -214q301 0 515 214q213 213 213 515q0 301 -213 515q-214 213 -515 213q-302 0 -515 -213 z" />
<glyph unicode="P" horiz-adv-x="1162" d="M326 662h-69v500h201q102 -1 174 -74q73 -74 73 -176t-73 -176q-72 -73 -174 -74h-132zM155 1419h-7l-6 -1l-7 1h-6q-54 0 -91 -38q-38 -37 -38 -91v-1161q0 -54 38 -91q37 -38 91 -38q53 0 90 38q38 37 38 91v276h205q206 2 353 151t147 356q0 208 -148 357 q-147 148 -355 150h-304z" />
<glyph unicode="Q" horiz-adv-x="1657" d="M964 451q-28 45 -80 57t-97 -16t-57 -80t16 -97l45 -74q-35 -4 -62 -4q-195 0 -334 138q-138 138 -138 333t138 333q139 139 334 139t333 -139q138 -138 138 -333q0 -107 -46 -203q-45 -93 -125 -159zM214 1223q-214 -214 -214 -515t214 -515q213 -213 515 -213 q105 0 206 30l63 -101q28 -45 80 -57t97 16t57 80q12 51 -16 97l-50 81q135 102 212 252q79 155 79 330q0 301 -213 515q-214 214 -515 214q-302 0 -515 -214z" />
<glyph unicode="R" horiz-adv-x="1203" d="M257 732v430h277q87 -1 150 -64q62 -63 62 -151t-62 -151q-63 -63 -151 -64h-276zM866 1279q-138 139 -331 140h-380h-7l-6 -1l-7 1h-6q-54 0 -91 -37q-38 -38 -38 -91v-1162q0 -54 38 -91q37 -38 91 -38q53 0 90 38q38 37 38 91v346h169l320 -424q33 -42 85 -50 q53 -7 96 25q42 32 49 85q8 53 -25 95l-232 308q127 55 205 171q79 119 79 262q0 194 -137 332z" />
<glyph unicode="S" horiz-adv-x="1131" d="M473 837h-1q-95 7 -151 59q-57 52 -51 127q5 75 68 119q63 43 158 36q79 -5 148 -70q39 -36 93 -34q53 1 89 40q37 39 35 92q-2 54 -41 90q-62 58 -122 89q-82 43 -184 50q-201 14 -344 -99q-144 -112 -157 -295q-13 -182 113 -314t328 -146q84 -6 147 -48q29 -19 42 -45 q18 -35 14 -93q-5 -75 -68 -118q-63 -44 -158 -37q-90 6 -145 62q-37 38 -91 38q-53 0 -91 -37q-37 -38 -38 -91q0 -53 38 -91q123 -124 309 -137q201 -15 344 98q144 113 157 295q17 246 -172 371q-119 79 -269 89z" />
<glyph unicode="T" horiz-adv-x="1274" d="M129 1419q-54 0 -91 -38q-38 -37 -38 -91q0 -53 38 -90q37 -38 91 -38h279v-1033q0 -54 38 -91q38 -38 91 -38t91 38q37 37 37 91v1033h280q53 0 91 38q38 37 38 90q0 54 -38 91q-38 38 -91 38h-816z" />
<glyph unicode="U" horiz-adv-x="1421" d="M1001 1380q-37 -37 -37 -91v-695q-2 -144 -105 -247q-104 -102 -249 -102t-248 103q-104 103 -105 248v693q0 54 -37 91q-38 38 -91 38q-54 0 -91 -38q-38 -37 -38 -91v-697q2 -250 181 -427t429 -177t429 177t182 427v697q0 54 -38 91q-38 38 -91 38t-91 -38z" />
<glyph unicode="V" horiz-adv-x="1526" d="M1141 1411q-50 -19 -72 -68l-406 -902l-407 902q-22 49 -72 68q-49 18 -98 -4q-48 -21 -67 -71t3 -99l524 -1162l2 -3l2 -3l6 -12l8 -10l8 -9l10 -9l9 -7l12 -7l4 -2l3 -2l4 -1l13 -4l11 -4l13 -1l12 -1l12 1l13 1l11 4l13 4l4 1l3 2l3 2l12 7l10 7l10 9l8 9l7 10l7 12 l2 3l2 3l524 1162q22 49 3 99t-68 71q-48 22 -98 4z" />
<glyph unicode="W" horiz-adv-x="1945" d="M1547 1404q-47 -25 -64 -75l-244 -774l-244 774q-12 40 -46 65t-76 25t-77 -25q-34 -25 -46 -65l-244 -774l-244 774q-17 50 -64 75t-98 9t-75 -64q-25 -47 -9 -98l367 -1162q29 -89 127 -89q87 3 118 89l245 774l244 -774q35 -89 125 -89q93 0 120 89l367 1162 q16 51 -9 98q-24 48 -75 64t-98 -9z" />
<glyph unicode="X" horiz-adv-x="1226" d="M862 1416q-52 -11 -81 -55l-268 -415l-268 415q-29 44 -81 55q-52 12 -97 -17t-56 -81t18 -97l331 -511l-331 -511q-29 -45 -18 -97t56 -81t97 -18t81 56l268 414l268 -414q29 -45 81 -56t97 18t56 81t-18 97l-331 511l331 511q29 45 18 97t-56 81t-97 17z" />
<glyph unicode="Y" horiz-adv-x="1398" d="M1032 1416q-52 -12 -80 -57l-353 -565l-353 565q-28 45 -80 57t-97 -16q-45 -29 -57 -81q-12 -51 16 -97l442 -708v-385q0 -54 38 -91q38 -38 91 -38t91 38q37 37 37 91v385l443 708q28 46 16 97q-12 52 -57 81q-45 28 -97 16z" />
<glyph unicode="Z" horiz-adv-x="1317" d="M398 257l674 960q45 63 9 133q-36 69 -114 69h-817q-53 0 -91 -38q-37 -37 -37 -91q0 -53 37 -90q38 -38 91 -38h569l-674 -959q-45 -64 -9 -134q36 -69 114 -69h817q53 0 91 38q37 37 37 91q0 53 -37 91q-38 37 -91 37h-569z" />
<glyph unicode="[" horiz-adv-x="702" d="M257 -170v1710h117q53 0 91 38q37 37 37 91q0 53 -37 91q-38 37 -91 37h-245q-54 0 -91 -37q-38 -38 -38 -91v-1967q0 -54 38 -91q37 -38 91 -38h245q53 0 91 38q37 37 37 91q0 53 -37 90q-38 38 -91 38h-117z" />
<glyph unicode="\" horiz-adv-x="702" d="M208 1397q45 -29 55 -82l228 -1161q11 -53 -19 -97t-82 -54q-52 -11 -96 19q-45 30 -55 82l-228 1162q-11 52 19 96q30 45 82 55t96 -20z" />
<glyph unicode="]" horiz-adv-x="702" d="M128 -170q-53 0 -91 -38q-37 -37 -37 -90q0 -54 37 -91q38 -38 91 -38h245q54 0 91 38q38 37 38 91v1967q0 53 -38 91q-37 37 -91 37h-245q-53 0 -91 -37q-37 -38 -37 -91q0 -54 37 -91q38 -38 91 -38h117v-1710h-117z" />
<glyph unicode="^" horiz-adv-x="831" d="M39 1702q-29 -22 -34 -57t16 -63q21 -29 57 -34q35 -5 63 16l174 130l175 -130q28 -21 63 -16t57 34q21 28 16 63t-34 57l-225 168q-23 17 -52 17q-28 0 -51 -17z" />
<glyph unicode="_" horiz-adv-x="1000" d="M129 -19q-54 0 -91 -38q-38 -37 -38 -90q0 -54 38 -91q37 -38 91 -38h542q54 0 91 38q38 37 38 91q0 53 -38 90q-37 38 -91 38h-542z" />
<glyph unicode="`" horiz-adv-x="580" d="M240 1565q28 -20 64 -15q35 6 55 34q21 29 16 64q-6 35 -34 56l-201 146q-28 21 -64 15q-35 -5 -55 -34q-21 -29 -16 -64q6 -35 34 -56z" />
<glyph unicode="a" horiz-adv-x="1526" d="M450 505l213 473l213 -473h-426zM334 248h653h2l3 1l77 -173q22 -48 72 -67t98 3q49 22 68 71q19 50 -3 99l-524 1162q-31 75 -117 75t-117 -75l-524 -1162q-22 -49 -3 -99q19 -49 67 -71q49 -22 99 -3q49 19 71 67z" />
<glyph unicode="b" horiz-adv-x="1275" d="M257 257v331h398q67 0 115 -49q48 -48 48 -116t-48 -117q-48 -48 -116 -49h-397zM720 896q-45 -46 -109 -46h-354v312h354q64 -1 109 -46q45 -46 45 -110t-45 -110zM1022 1006q0 169 -120 290q-120 122 -289 123h-458h-7l-6 -1l-7 1h-6q-54 0 -91 -38q-38 -37 -38 -91 v-1161q0 -54 38 -91q37 -38 91 -38h6l7 1l6 -1h7h504q171 2 294 126q122 124 122 297q0 193 -148 320q95 115 95 263z" />
<glyph unicode="c" horiz-adv-x="1463" d="M729 238q-195 0 -334 138q-138 139 -138 334t138 333q139 138 334 138q169 0 299 -108q42 -34 95 -29q53 6 86 47q34 41 29 94t-46 87q-201 166 -463 166q-302 0 -515 -213q-214 -214 -214 -515q0 -302 214 -515q213 -214 515 -214q281 0 489 189q40 36 42 89 q3 54 -33 93t-89 42q-53 2 -92 -33q-135 -123 -317 -123z" />
<glyph unicode="d" horiz-adv-x="1459" d="M257 257v905h295q185 -1 317 -134t132 -318t-131 -318q-132 -133 -318 -135h-295zM129 1419q-54 0 -91 -37q-38 -38 -38 -91v-2v-1159v-1q0 -54 38 -91q37 -38 91 -38h428q290 3 495 211q207 209 207 499q0 291 -207 499t-499 210h-424z" />
<glyph unicode="e" horiz-adv-x="1131" d="M802 1162q54 0 91 38q38 37 38 90q0 54 -38 91q-37 38 -91 38h-673q-54 0 -91 -38q-38 -37 -38 -91v-1161q0 -54 38 -91q37 -38 91 -38h673q54 0 91 38q38 37 38 91q0 53 -38 91q-37 37 -91 37h-545v327h414q54 0 91 38q38 37 38 91q0 53 -38 90q-37 38 -91 38h-414v321 h545z" />
<glyph unicode="f" horiz-adv-x="1131" d="M129 1419q-54 0 -91 -38q-38 -37 -38 -91v-1161q0 -54 38 -91q37 -38 91 -38q53 0 90 38q38 37 38 91v404h386q53 0 91 38q37 38 37 91t-37 91q-38 37 -91 37h-386v372h545q54 0 91 38q38 37 38 90q0 54 -38 91q-37 38 -91 38h-673z" />
<glyph unicode="g" horiz-adv-x="1461" d="M1041 687q-38 -37 -38 -91v-268q-123 -89 -274 -89q-195 0 -334 138q-138 139 -138 334t138 333q139 138 334 138q169 0 299 -108q42 -34 95 -29q53 6 86 47q34 41 29 94t-46 87q-201 166 -463 166q-302 0 -515 -213q-214 -214 -214 -515q0 -302 214 -515 q213 -214 515 -214q281 0 490 189q42 39 42 95v330q0 54 -38 91q-38 38 -91 38t-91 -38z" />
<glyph unicode="h" horiz-adv-x="1390" d="M971 1381q-38 -37 -38 -91v-450h-676v450q0 54 -38 91q-37 38 -90 38q-54 0 -91 -38q-38 -37 -38 -91v-1161q0 -54 38 -91q37 -38 91 -38q53 0 90 38q38 37 38 91v454h676v-454q0 -54 38 -91q38 -38 91 -38t91 38q37 37 37 91v1161q0 54 -37 91q-38 38 -91 38t-91 -38z " />
<glyph unicode="i" horiz-adv-x="457" d="M38 1381q-38 -37 -38 -91v-1161q0 -54 38 -91q37 -38 91 -38q53 0 90 38q38 37 38 91v1161q0 54 -38 91q-37 38 -90 38q-54 0 -91 -38z" />
<glyph unicode="j" horiz-adv-x="1145" d="M725 1381q-37 -37 -37 -91v-778q0 -110 -81 -188q-79 -78 -189 -78q-115 0 -195 84q-37 39 -90 40q-53 2 -92 -35q-38 -36 -40 -90q-1 -53 35 -92q156 -164 382 -164q216 0 370 153q154 152 157 368v780q0 54 -38 91q-38 38 -91 38t-91 -38z" />
<glyph unicode="k" horiz-adv-x="1231" d="M263 631l542 -590q37 -39 90 -41t92 34t41 89q3 54 -33 93l-462 501l460 485q37 39 36 92q-2 53 -41 90q-38 36 -91 35q-54 -1 -90 -40l-543 -573q-4 -4 -7 -8v493q0 53 -37 90q-38 38 -91 38q-54 0 -91 -38q-38 -37 -38 -90v-1162q0 -54 38 -91q37 -38 91 -38 q53 0 91 38q37 37 37 91v509q3 -4 6 -7z" />
<glyph unicode="l" horiz-adv-x="1045" d="M257 257v1033q0 54 -38 91q-37 38 -90 38q-54 0 -91 -38q-38 -37 -38 -91v-1161q0 -54 38 -91q37 -38 91 -38h588q53 0 91 38q37 37 37 91q0 53 -37 91q-38 37 -91 37h-460z" />
<glyph unicode="m" horiz-adv-x="1568" d="M1185 1407q-41 -19 -61 -59l-440 -879l-440 879q-20 40 -61 59t-84 9q-44 -11 -71 -46q-28 -35 -28 -80v-1161q0 -54 38 -91q37 -38 91 -38q53 0 90 38q38 37 38 91v618l306 -610q5 -14 11 -24q38 -61 109 -61q73 0 110 61q5 9 10 19l308 615v-618q0 -54 37 -91 q38 -38 91 -38q54 0 91 38q38 37 38 91v1161q0 45 -28 80t-71 46q-44 10 -84 -9z" />
<glyph unicode="n" horiz-adv-x="1390" d="M971 1382q-38 -38 -38 -91v-797l-704 877q-26 32 -65 43q-40 11 -78 -2q-39 -14 -62 -47q-24 -33 -24 -74v-1162q0 -54 38 -91q37 -38 91 -38q53 0 90 38q38 37 38 91v796l705 -877q25 -32 65 -43q39 -11 78 2q38 14 62 47q23 34 23 75v1162q0 53 -37 91q-38 37 -91 37 t-91 -37z" />
<glyph unicode="o" horiz-adv-x="1657" d="M395 375q-138 139 -138 334t138 333q139 138 334 138t333 -138t138 -333t-138 -334q-138 -138 -333 -138t-334 138zM214 1224q-214 -214 -214 -515q0 -302 214 -515q213 -214 515 -214q301 0 515 214q213 213 213 515q0 301 -213 515q-214 213 -515 213q-302 0 -515 -213 z" />
<glyph unicode="p" horiz-adv-x="1162" d="M326 662h-69v500h201q102 -1 174 -74q73 -74 73 -176t-73 -176q-72 -73 -174 -74h-132zM155 1419h-7l-6 -1l-7 1h-6q-54 0 -91 -38q-38 -37 -38 -91v-1161q0 -54 38 -91q37 -38 91 -38q53 0 90 38q38 37 38 91v276h205q206 2 353 151t147 356q0 208 -148 357 q-147 148 -355 150h-304z" />
<glyph unicode="q" horiz-adv-x="1657" d="M964 451q-28 45 -80 57t-97 -16t-57 -80t16 -97l45 -74q-35 -4 -62 -4q-195 0 -334 138q-138 138 -138 333t138 333q139 139 334 139t333 -139q138 -138 138 -333q0 -107 -46 -203q-45 -93 -125 -159zM214 1223q-214 -214 -214 -515t214 -515q213 -213 515 -213 q105 0 206 30l63 -101q28 -45 80 -57t97 16t57 80q12 51 -16 97l-50 81q135 102 212 252q79 155 79 330q0 301 -213 515q-214 214 -515 214q-302 0 -515 -214z" />
<glyph unicode="r" horiz-adv-x="1203" d="M257 732v430h277q87 -1 150 -64q62 -63 62 -151t-62 -151q-63 -63 -151 -64h-276zM866 1279q-138 139 -331 140h-380h-7l-6 -1l-7 1h-6q-54 0 -91 -37q-38 -38 -38 -91v-1162q0 -54 38 -91q37 -38 91 -38q53 0 90 38q38 37 38 91v346h169l320 -424q33 -42 85 -50 q53 -7 96 25q42 32 49 85q8 53 -25 95l-232 308q127 55 205 171q79 119 79 262q0 194 -137 332z" />
<glyph unicode="s" horiz-adv-x="1131" d="M473 837h-1q-95 7 -151 59q-57 52 -51 127q5 75 68 119q63 43 158 36q79 -5 148 -70q39 -36 93 -34q53 1 89 40q37 39 35 92q-2 54 -41 90q-62 58 -122 89q-82 43 -184 50q-201 14 -344 -99q-144 -112 -157 -295q-13 -182 113 -314t328 -146q84 -6 147 -48q29 -19 42 -45 q18 -35 14 -93q-5 -75 -68 -118q-63 -44 -158 -37q-90 6 -145 62q-37 38 -91 38q-53 0 -91 -37q-37 -38 -38 -91q0 -53 38 -91q123 -124 309 -137q201 -15 344 98q144 113 157 295q17 246 -172 371q-119 79 -269 89z" />
<glyph unicode="t" horiz-adv-x="1274" d="M129 1419q-54 0 -91 -38q-38 -37 -38 -91q0 -53 38 -90q37 -38 91 -38h279v-1033q0 -54 38 -91q38 -38 91 -38t91 38q37 37 37 91v1033h280q53 0 91 38q38 37 38 90q0 54 -38 91q-38 38 -91 38h-816z" />
<glyph unicode="u" horiz-adv-x="1421" d="M1001 1380q-37 -37 -37 -91v-695q-2 -144 -105 -247q-104 -102 -249 -102t-248 103q-104 103 -105 248v693q0 54 -37 91q-38 38 -91 38q-54 0 -91 -38q-38 -37 -38 -91v-697q2 -250 181 -427t429 -177t429 177t182 427v697q0 54 -38 91q-38 38 -91 38t-91 -38z" />
<glyph unicode="v" horiz-adv-x="1526" d="M1141 1411q-50 -19 -72 -68l-406 -902l-407 902q-22 49 -72 68q-49 18 -98 -4q-48 -21 -67 -71t3 -99l524 -1162l2 -3l2 -3l6 -12l8 -10l8 -9l10 -9l9 -7l12 -7l4 -2l3 -2l4 -1l13 -4l11 -4l13 -1l12 -1l12 1l13 1l11 4l13 4l4 1l3 2l3 2l12 7l10 7l10 9l8 9l7 10l7 12 l2 3l2 3l524 1162q22 49 3 99t-68 71q-48 22 -98 4z" />
<glyph unicode="w" horiz-adv-x="1945" d="M1547 1404q-47 -25 -64 -75l-244 -774l-244 774q-12 40 -46 65t-76 25t-77 -25q-34 -25 -46 -65l-244 -774l-244 774q-17 50 -64 75t-98 9t-75 -64q-25 -47 -9 -98l367 -1162q29 -89 127 -89q87 3 118 89l245 774l244 -774q35 -89 125 -89q93 0 120 89l367 1162 q16 51 -9 98q-24 48 -75 64t-98 -9z" />
<glyph unicode="x" horiz-adv-x="1226" d="M862 1416q-52 -11 -81 -55l-268 -415l-268 415q-29 44 -81 55q-52 12 -97 -17t-56 -81t18 -97l331 -511l-331 -511q-29 -45 -18 -97t56 -81t97 -18t81 56l268 414l268 -414q29 -45 81 -56t97 18t56 81t-18 97l-331 511l331 511q29 45 18 97t-56 81t-97 17z" />
<glyph unicode="y" horiz-adv-x="1398" d="M1032 1416q-52 -12 -80 -57l-353 -565l-353 565q-28 45 -80 57t-97 -16q-45 -29 -57 -81q-12 -51 16 -97l442 -708v-385q0 -54 38 -91q38 -38 91 -38t91 38q37 37 37 91v385l443 708q28 46 16 97q-12 52 -57 81q-45 28 -97 16z" />
<glyph unicode="z" horiz-adv-x="1317" d="M398 257l674 960q45 63 9 133q-36 69 -114 69h-817q-53 0 -91 -38q-37 -37 -37 -91q0 -53 37 -90q38 -38 91 -38h569l-674 -959q-45 -64 -9 -134q36 -69 114 -69h817q53 0 91 38q37 37 37 91q0 53 -37 91q-38 37 -91 37h-569z" />
<glyph unicode="{" horiz-adv-x="911" d="M673 1563q38 38 38 91t-38 91q-37 38 -90 38q-185 0 -288 -129q-84 -105 -84 -240v-483q0 -20 -3 -37q-3 -22 -11 -38q-20 -41 -67 -42l-1 1q-54 0 -91 -38q-38 -38 -38 -91v0q0 -54 38 -91q37 -38 91 -38h1q46 0 67 -42q8 -15 11 -37q3 -17 3 -36v-484q0 -136 84 -240 q103 -129 288 -129q53 0 90 38q38 37 38 91q0 53 -38 90q-37 38 -90 38q-68 0 -96 43q-11 16 -15 37q-4 16 -4 32v487v6q0 9 -1 20q-2 29 -8 59q-19 90 -66 156q47 66 66 156q6 30 8 60q1 11 1 20v7v485q4 112 115 112q53 0 90 37z" />
<glyph unicode="|" horiz-adv-x="457" d="M38 1917q-38 -37 -38 -91v-2233q0 -54 38 -91q37 -38 91 -38q53 0 90 38q38 37 38 91v2233q0 54 -38 91q-37 38 -90 38q-54 0 -91 -38z" />
<glyph unicode="}" horiz-adv-x="911" d="M128 1526q111 0 115 -112v-485v-7q0 -9 1 -20q2 -30 8 -60q19 -90 66 -156q-47 -66 -66 -156q-6 -30 -8 -59q-1 -11 -1 -20v-6v-487q0 -16 -4 -32q-4 -21 -15 -37q-28 -43 -96 -43q-53 0 -90 -38q-38 -37 -38 -90q0 -54 38 -91q37 -38 90 -38q185 0 288 129 q84 104 84 240v484q0 19 3 36q3 22 11 37q21 42 67 42h1q54 0 91 38q38 37 38 91v0q0 53 -38 91q-37 38 -91 38l-1 -1q-47 1 -67 42q-8 16 -11 38q-3 17 -3 37v483q0 135 -84 240q-103 129 -288 129q-53 0 -90 -38q-38 -38 -38 -91t38 -91q37 -37 90 -37z" />
<glyph unicode="~" horiz-adv-x="1092" d="M247 658q18 5 47 -10l26 -13l25 -14l34 -19l36 -18q43 -20 80 -30q97 -27 193 6q107 35 179 135q25 35 19 78q-7 42 -42 67q-35 26 -77 19q-42 -8 -68 -42q-32 -47 -76 -61q-40 -13 -80 0q-30 8 -98 46q-36 20 -56 31q-113 57 -218 17q-38 -14 -78 -43q-15 -11 -31 -26 l-14 -12l-12 -11q-32 -29 -34 -71q-2 -44 27 -75t72 -34q42 -2 74 27q51 46 72 53z" />
<glyph unicode="&#xa1;" horiz-adv-x="479" d="M230 38q38 37 38 91v790q0 53 -38 91q-37 38 -91 38q-53 0 -91 -38q-37 -38 -37 -91v-790q0 -54 37 -91q38 -38 91 -38q54 0 91 38zM238 1182q41 40 41 98q0 59 -41 99q-40 41 -99 41q-58 0 -98 -41q-41 -40 -41 -99q0 -58 41 -98q40 -41 98 -41q59 0 99 41z" />
<glyph unicode="&#xa2;" horiz-adv-x="1171" d="M337 937q79 95 200 118v-677q-121 23 -200 118q-80 96 -80 221q0 124 80 220zM665 378v677q56 -11 102 -36q47 -25 98 -10t76 61q26 47 11 98t-62 77q-104 57 -225 70v118q0 27 -19 45q-19 19 -45 19q-27 0 -46 -19q-18 -18 -18 -45v-118q-228 -25 -382 -195 q-155 -172 -155 -403q0 -232 155 -403q154 -171 382 -196v-118q0 -26 18 -45q19 -19 46 -19q26 0 45 19t19 45v118q124 14 230 73q47 26 61 77q15 52 -11 98q-26 47 -78 61q-51 15 -97 -11q-47 -27 -105 -38z" />
<glyph unicode="&#xa3;" horiz-adv-x="1230" d="M717 237q-44 1 -155 32l-30 8l-32 9q-37 9 -68 14q68 177 31 361h143q27 0 45 19q19 19 19 46t-19 46q-18 19 -45 19h-182q-19 47 -44 92q-47 83 -20 170q22 74 88 107q74 37 159 5q84 -32 129 -115q26 -46 77 -62q51 -15 98 10q46 27 61 78t-10 98q-95 174 -279 237 q-185 63 -351 -20q-164 -83 -218 -263q-52 -170 25 -337h-75q-26 0 -45 -19t-19 -46t19 -46t45 -19h134q49 -149 -13 -288q-21 -49 -56 -94q-13 -17 -28 -33q-12 -12 -23 -22q-43 -40 -41 -100q-4 -55 33 -95q35 -40 89 -42q53 -3 92 33q37 33 91 31q44 -1 151 -31l27 -7 l28 -8q32 -8 59 -14q69 -13 126 -12q150 4 259 114q38 38 38 91q0 54 -38 91q-38 38 -91 38t-91 -38t-93 -38z" />
<glyph unicode="&#xa4;" />
<glyph unicode="&#xa5;" />
<glyph unicode="&#xa6;" horiz-adv-x="457" d="M38 1917q-38 -37 -38 -91v-780q0 -54 38 -91q37 -38 91 -38q53 0 90 38q38 37 38 91v780q0 54 -38 91q-37 38 -90 38q-54 0 -91 -38zM38 464q-38 -37 -38 -91v-780q0 -54 38 -91q37 -38 91 -38q53 0 90 38q38 37 38 91v780q0 54 -38 91q-37 38 -90 38q-54 0 -91 -38z" />
<glyph unicode="&#xa7;" />
<glyph unicode="&#xa8;" horiz-adv-x="872" d="M194 1739q-32 33 -79 33h-3q-47 0 -79 -33q-33 -32 -33 -78q0 -47 33 -79q32 -33 79 -33h3q47 0 79 33q33 32 33 79q0 46 -33 78zM639 1739q-32 33 -79 33h-3q-47 0 -79 -33q-33 -32 -33 -78q0 -47 33 -79q32 -33 79 -33h3q47 0 79 33q33 32 33 79q0 46 -33 78z" />
<glyph unicode="&#xa9;" />
<glyph unicode="&#xaa;" />
<glyph unicode="&#xab;" />
<glyph unicode="&#xac;" />
<glyph unicode="&#xad;" horiz-adv-x="1000" d="M129 864q-54 0 -91 -38q-38 -37 -38 -90q0 -54 38 -91q37 -38 91 -38h542q54 0 91 38q38 37 38 91q0 53 -38 90q-37 38 -91 38h-542z" />
<glyph unicode="&#xae;" />
<glyph unicode="&#xaf;" horiz-adv-x="829" d="M543 1550q35 0 60 25q26 25 26 61q0 35 -26 60q-25 25 -60 25h-457q-36 0 -61 -25t-25 -60q0 -36 25 -61t61 -25h457z" />
<glyph unicode="&#xb0;" />
<glyph unicode="&#xb1;" />
<glyph unicode="&#xb2;" />
<glyph unicode="&#xb3;" />
<glyph unicode="&#xb4;" horiz-adv-x="580" d="M341 1711q28 21 34 56q5 35 -16 64q-20 29 -55 34q-36 6 -64 -15l-201 -146q-28 -21 -34 -56q-5 -35 16 -64q20 -28 55 -34q36 -5 64 15z" />
<glyph unicode="&#xb5;" />
<glyph unicode="&#xb6;" />
<glyph unicode="&#xb7;" />
<glyph unicode="&#xb8;" horiz-adv-x="763" d="M438 233q-33 -13 -47 -46q-122 -290 -131 -314l-2 -5q-2 -5 -3 -8v0q-9 -31 5 -59t43 -41q6 -5 18 -13q12 -9 20 -16q6 -11 2 -27q-16 -74 -82 -105q-34 -16 -72 -16q-34 0 -56 12q-32 17 -66 7t-50 -41q-17 -32 -7 -66t41 -50q60 -33 137 -33t145 32q144 66 178 224 q20 94 -35 170l-1 1l-2 2q-3 3 -6 7q-11 11 -23 22l105 250q14 33 1 66q-14 33 -46 47q-33 13 -66 0z" />
<glyph unicode="&#xb9;" />
<glyph unicode="&#xba;" />
<glyph unicode="&#xbb;" />
<glyph unicode="&#xbc;" />
<glyph unicode="&#xbd;" />
<glyph unicode="&#xbe;" />
<glyph unicode="&#xbf;" />
<glyph unicode="&#xc0;" horiz-adv-x="1526" d="M450 505l213 473l213 -473h-426zM334 248h653h2l3 1l77 -173q22 -48 72 -67t98 3q49 22 68 71q19 50 -3 99l-524 1162q-31 75 -117 75t-117 -75l-524 -1162q-22 -49 -3 -99q19 -49 67 -71q49 -22 99 -3q49 19 71 67zM651 1567q28 -20 64 -15q35 6 55 34q21 29 16 64 q-6 35 -34 56l-201 146q-28 21 -64 15q-35 -5 -55 -34q-21 -29 -16 -64q6 -35 34 -56z" />
<glyph unicode="&#xc1;" horiz-adv-x="1526" d="M450 505l213 473l213 -473h-426zM334 248h653h2l3 1l77 -173q22 -48 72 -67t98 3q49 22 68 71q19 50 -3 99l-524 1162q-31 75 -117 75t-117 -75l-524 -1162q-22 -49 -3 -99q19 -49 67 -71q49 -22 99 -3q49 19 71 67zM876 1713q28 21 34 56q5 35 -16 64q-20 29 -55 34 q-36 6 -64 -15l-201 -146q-28 -21 -34 -56q-5 -35 16 -64q20 -28 55 -34q36 -5 64 15z" />
<glyph unicode="&#xc2;" horiz-adv-x="1526" d="M450 505l213 473l213 -473h-426zM334 248h653h2l3 1l77 -173q22 -48 72 -67t98 3q49 22 68 71q19 50 -3 99l-524 1162q-31 75 -117 75t-117 -75l-524 -1162q-22 -49 -3 -99q19 -49 67 -71q49 -22 99 -3q49 19 71 67zM386 1704q-29 -22 -34 -57t16 -63q21 -29 57 -34 q35 -5 63 16l174 130l175 -130q28 -21 63 -16t57 34q21 28 16 63t-34 57l-225 168q-23 17 -52 17q-28 0 -51 -17z" />
<glyph unicode="&#xc3;" horiz-adv-x="1526" d="M450 505l213 473l213 -473h-426zM334 248h653h2l3 1l77 -173q22 -48 72 -67t98 3q49 22 68 71q19 50 -3 99l-524 1162q-31 75 -117 75t-117 -75l-524 -1162q-22 -49 -3 -99q19 -49 67 -71q49 -22 99 -3q49 19 71 67zM500 1615q15 4 39 -8l21 -11l21 -12l28 -15l30 -15 q35 -17 66 -25q80 -22 160 5q88 29 148 112q21 29 16 64q-6 35 -35 56t-64 15t-56 -34q-27 -39 -63 -51q-33 -11 -66 0q-25 7 -81 38q-30 17 -47 26q-93 47 -180 14q-32 -12 -65 -36q-12 -9 -25 -21l-12 -10l-10 -9q-26 -24 -28 -59q-2 -36 22 -62t60 -28q35 -2 61 22 q42 38 60 44z" />
<glyph unicode="&#xc4;" horiz-adv-x="1526" d="M450 505l213 473l213 -473h-426zM334 248h653h2l3 1l77 -173q22 -48 72 -67t98 3q49 22 68 71q19 50 -3 99l-524 1162q-31 75 -117 75t-117 -75l-524 -1162q-22 -49 -3 -99q19 -49 67 -71q49 -22 99 -3q49 19 71 67zM521 1720q-32 33 -79 33h-3q-47 0 -79 -33 q-33 -32 -33 -78q0 -47 33 -79q32 -33 79 -33h3q47 0 79 33q33 32 33 79q0 46 -33 78zM966 1720q-32 33 -79 33h-3q-47 0 -79 -33q-33 -32 -33 -78q0 -47 33 -79q32 -33 79 -33h3q47 0 79 33q33 32 33 79q0 46 -33 78z" />
<glyph unicode="&#xc5;" horiz-adv-x="1526" d="M450 505l213 473l213 -473h-426zM716 1496q-22 -22 -53 -22q-32 0 -54 22t-22 54q0 31 22 53t54 22q31 0 53 -22t22 -53q0 -32 -22 -54zM819 1394q64 64 64 156q0 91 -64 156q-65 64 -156 64q-92 0 -156 -64q-65 -65 -65 -156q0 -92 65 -156q21 -22 46 -36q-4 -7 -7 -14 l-524 -1162q-22 -49 -3 -99q19 -49 67 -71q49 -22 99 -3q49 19 71 67l78 172h655l3 1l77 -173q22 -48 72 -67t98 3q49 22 68 71q19 50 -3 99l-524 1162q-3 7 -7 14q25 15 46 36z" />
<glyph unicode="&#xc6;" horiz-adv-x="2015" d="M450 505l296 658h138v-658h-434zM1141 258v326h414q53 0 91 38t38 91t-38 91t-91 38h-414v320h545q53 0 91 38t38 91t-38 91q-38 37 -91 37h-674h-4l-5 1h-6h-293q-12 0 -24 -2q-42 5 -79 -15q-38 -20 -55 -59l-524 -1162q-22 -49 -3 -99q19 -49 67 -71q49 -22 98 -3 q50 19 72 67l78 172h550v-119q0 -53 37 -91q38 -38 91 -38h674q53 0 91 38t38 91t-38 91t-91 38h-545z" />
<glyph unicode="&#xc7;" horiz-adv-x="1463" d="M603 -53l-2 -5q-2 -5 -3 -8q-9 -31 5 -59t43 -41q6 -5 18 -13q12 -9 20 -16q6 -11 2 -27q-16 -74 -82 -105q-34 -16 -72 -16q-34 0 -56 12q-32 17 -66 7t-50 -41q-17 -32 -7 -66t41 -50q60 -33 137 -33t145 32q144 66 178 224q20 94 -35 170l-1 1l-2 2q-3 3 -6 7 q-11 11 -23 22l16 40q235 22 415 186q40 36 42 89q3 54 -33 93t-89 42q-53 2 -92 -33q-135 -123 -317 -123q-195 0 -334 138q-138 139 -138 334t138 333q139 138 334 138q169 0 299 -108q42 -34 95 -29q53 6 86 47q34 41 29 94t-46 87q-201 166 -463 166q-302 0 -515 -213 q-214 -214 -214 -515q0 -302 214 -515q173 -174 405 -207q-13 -32 -16 -41z" />
<glyph unicode="&#xc8;" horiz-adv-x="1131" d="M802 1162q54 0 91 38q38 37 38 90q0 54 -38 91q-37 38 -91 38h-673q-54 0 -91 -38q-38 -37 -38 -91v-1161q0 -54 38 -91q37 -38 91 -38h673q54 0 91 38q38 37 38 91q0 53 -38 91q-37 37 -91 37h-545v327h414q54 0 91 38q38 37 38 91q0 53 -38 90q-37 38 -91 38h-414v321 h545zM454 1567q28 -20 64 -15q35 6 55 34q21 29 16 64q-6 35 -34 56l-201 146q-28 21 -64 15q-35 -5 -55 -34q-21 -29 -16 -64q6 -35 34 -56z" />
<glyph unicode="&#xc9;" horiz-adv-x="1131" d="M802 1162q54 0 91 38q38 37 38 90q0 54 -38 91q-37 38 -91 38h-673q-54 0 -91 -38q-38 -37 -38 -91v-1161q0 -54 38 -91q37 -38 91 -38h673q54 0 91 38q38 37 38 91q0 53 -38 91q-37 37 -91 37h-545v327h414q54 0 91 38q38 37 38 91q0 53 -38 90q-37 38 -91 38h-414v321 h545zM678 1713q28 21 34 56q5 35 -16 64q-20 29 -55 34q-36 6 -64 -15l-201 -146q-28 -21 -34 -56q-5 -35 16 -64q20 -28 55 -34q36 -5 64 15z" />
<glyph unicode="&#xca;" horiz-adv-x="1131" d="M802 1162q54 0 91 38q38 37 38 90q0 54 -38 91q-37 38 -91 38h-673q-54 0 -91 -38q-38 -37 -38 -91v-1161q0 -54 38 -91q37 -38 91 -38h673q54 0 91 38q38 37 38 91q0 53 -38 91q-37 37 -91 37h-545v327h414q54 0 91 38q38 37 38 91q0 53 -38 90q-37 38 -91 38h-414v321 h545zM189 1684q-29 -22 -34 -57t16 -63q21 -29 57 -34q35 -5 63 16l174 130l175 -130q28 -21 63 -16t57 34q21 28 16 63t-34 57l-225 168q-23 17 -52 17q-28 0 -51 -17z" />
<glyph unicode="&#xcb;" horiz-adv-x="1131" d="M802 1162q54 0 91 38q38 37 38 90q0 54 -38 91q-37 38 -91 38h-673q-54 0 -91 -38q-38 -37 -38 -91v-1161q0 -54 38 -91q37 -38 91 -38h673q54 0 91 38q38 37 38 91q0 53 -38 91q-37 37 -91 37h-545v327h414q54 0 91 38q38 37 38 91q0 53 -38 90q-37 38 -91 38h-414v321 h545zM324 1721q-32 33 -79 33h-3q-47 0 -79 -33q-33 -32 -33 -78q0 -47 33 -79q32 -33 79 -33h3q47 0 79 33q33 32 33 79q0 46 -33 78zM769 1721q-32 33 -79 33h-3q-47 0 -79 -33q-33 -32 -33 -78q0 -47 33 -79q32 -33 79 -33h3q47 0 79 33q33 32 33 79q0 46 -33 78z" />
<glyph unicode="&#xcc;" horiz-adv-x="457" d="M38 1381q-38 -37 -38 -91v-1161q0 -54 38 -91q37 -38 91 -38q53 0 90 38q38 37 38 91v1161q0 54 -38 91q-37 38 -90 38q-54 0 -91 -38zM83 1565q28 -20 64 -15q35 6 55 34q21 29 16 64q-6 35 -34 56l-201 146q-28 21 -64 15q-35 -5 -55 -34q-21 -29 -16 -64q6 -35 34 -56 z" />
<glyph unicode="&#xcd;" horiz-adv-x="457" d="M38 1381q-38 -37 -38 -91v-1161q0 -54 38 -91q37 -38 91 -38q53 0 90 38q38 37 38 91v1161q0 54 -38 91q-37 38 -90 38q-54 0 -91 -38zM341 1713q28 21 34 56q5 35 -16 64q-20 29 -55 34q-36 6 -64 -15l-201 -146q-28 -21 -34 -56q-5 -35 16 -64q20 -28 55 -34 q36 -5 64 15z" />
<glyph unicode="&#xce;" horiz-adv-x="457" d="M38 1381q-38 -37 -38 -91v-1161q0 -54 38 -91q37 -38 91 -38q53 0 90 38q38 37 38 91v1161q0 54 -38 91q-37 38 -90 38q-54 0 -91 -38zM-148 1684q-29 -22 -34 -57t16 -63q21 -29 57 -34q35 -5 63 16l174 130l175 -130q28 -21 63 -16t57 34q21 28 16 63t-34 57l-225 168 q-23 17 -52 17q-28 0 -51 -17z" />
<glyph unicode="&#xcf;" horiz-adv-x="457" d="M38 1381q-38 -37 -38 -91v-1161q0 -54 38 -91q37 -38 91 -38q53 0 90 38q38 37 38 91v1161q0 54 -38 91q-37 38 -90 38q-54 0 -91 -38zM-13 1721q-33 33 -80 33h-2q-47 0 -80 -33q-32 -32 -32 -78q0 -47 32 -79q33 -33 80 -33h2q47 0 80 33q32 32 32 79q0 46 -32 78z M432 1721q-33 33 -80 33h-2q-47 0 -80 -33q-32 -32 -32 -78q0 -47 32 -79q33 -33 80 -33h2q47 0 80 33q32 32 32 79q0 46 -32 78z" />
<glyph unicode="&#xd0;" horiz-adv-x="1458" d="M256 795v367h295q185 -1 317 -134t132 -318t-131 -318q-132 -133 -318 -135h-295v367h294q35 0 60 25q26 25 26 61q0 35 -26 60q-25 25 -60 25h-294zM-38 795q-36 0 -61 -25t-25 -60q0 -36 25 -61t61 -25h37v-495q0 -54 38 -91q37 -38 91 -38h428q290 3 496 211 q206 209 206 499q0 291 -207 499t-499 210h-424q-54 0 -91 -37q-38 -38 -38 -91v-496h-37z" />
<glyph unicode="&#xd1;" horiz-adv-x="1390" d="M971 1382q-38 -38 -38 -91v-797l-704 877q-26 32 -65 43q-40 11 -78 -2q-39 -14 -62 -47q-24 -33 -24 -74v-1162q0 -54 38 -91q37 -38 91 -38q53 0 90 38q38 37 38 91v796l705 -877q25 -32 65 -43q39 -11 78 2q38 14 62 47q23 34 23 75v1162q0 53 -37 91q-38 37 -91 37 t-91 -37zM432 1624q15 4 39 -8l21 -11l21 -12l28 -15l30 -15q35 -17 66 -25q80 -22 160 5q88 29 148 112q21 29 16 64q-6 35 -35 56t-64 15t-56 -34q-27 -39 -63 -51q-33 -11 -66 0q-25 7 -81 38q-30 17 -47 26q-93 47 -180 14q-32 -12 -65 -36q-12 -9 -25 -21l-12 -10 l-10 -9q-26 -24 -28 -59q-2 -36 22 -62t60 -28q35 -2 61 22q42 38 60 44z" />
<glyph unicode="&#xd2;" horiz-adv-x="1657" d="M395 375q-138 139 -138 334t138 333q139 138 334 138t333 -138t138 -333t-138 -334q-138 -138 -333 -138t-334 138zM214 1224q-214 -214 -214 -515q0 -302 214 -515q213 -214 515 -214q301 0 515 214q213 213 213 515q0 301 -213 515q-214 213 -515 213q-302 0 -515 -213 zM716 1567q28 -20 64 -15q35 6 55 34q21 29 16 64q-6 35 -34 56l-201 146q-28 21 -64 15q-35 -5 -55 -34q-21 -29 -16 -64q6 -35 34 -56z" />
<glyph unicode="&#xd3;" horiz-adv-x="1657" d="M395 375q-138 139 -138 334t138 333q139 138 334 138t333 -138t138 -333t-138 -334q-138 -138 -333 -138t-334 138zM214 1224q-214 -214 -214 -515q0 -302 214 -515q213 -214 515 -214q301 0 515 214q213 213 213 515q0 301 -213 515q-214 213 -515 213q-302 0 -515 -213 zM942 1709q28 21 34 56q5 35 -16 64q-20 29 -55 34q-36 6 -64 -15l-201 -146q-28 -21 -34 -56q-5 -35 16 -64q20 -28 55 -34q36 -5 64 15z" />
<glyph unicode="&#xd4;" horiz-adv-x="1657" d="M395 375q-138 139 -138 334t138 333q139 138 334 138t333 -138t138 -333t-138 -334q-138 -138 -333 -138t-334 138zM214 1224q-214 -214 -214 -515q0 -302 214 -515q213 -214 515 -214q301 0 515 214q213 213 213 515q0 301 -213 515q-214 213 -515 213q-302 0 -515 -213 zM452 1684q-29 -22 -34 -57t16 -63q21 -29 57 -34q35 -5 63 16l174 130l175 -130q28 -21 63 -16t57 34q21 28 16 63t-34 57l-225 168q-23 17 -52 17q-28 0 -51 -17z" />
<glyph unicode="&#xd5;" horiz-adv-x="1657" d="M395 375q-138 139 -138 334t138 333q139 138 334 138t333 -138t138 -333t-138 -334q-138 -138 -333 -138t-334 138zM214 1224q-214 -214 -214 -515q0 -302 214 -515q213 -214 515 -214q301 0 515 214q213 213 213 515q0 301 -213 515q-214 213 -515 213q-302 0 -515 -213 zM565 1625q15 4 39 -8l21 -11l21 -12l28 -15l30 -15q35 -17 66 -25q80 -22 160 5q88 29 148 112q21 29 16 64q-6 35 -35 56t-64 15t-56 -34q-27 -39 -63 -51q-33 -11 -66 0q-25 7 -81 38q-30 17 -47 26q-93 47 -180 14q-32 -12 -65 -36q-12 -9 -25 -21l-12 -10l-10 -9 q-26 -24 -28 -59q-2 -36 22 -62t60 -28q35 -2 61 22q42 38 60 44z" />
<glyph unicode="&#xd6;" horiz-adv-x="1657" d="M395 375q-138 139 -138 334t138 333q139 138 334 138t333 -138t138 -333t-138 -334q-138 -138 -333 -138t-334 138zM214 1224q-214 -214 -214 -515q0 -302 214 -515q213 -214 515 -214q301 0 515 214q213 213 213 515q0 301 -213 515q-214 213 -515 213q-302 0 -515 -213 zM587 1721q-32 33 -79 33h-3q-47 0 -79 -33q-33 -32 -33 -78q0 -47 33 -79q32 -33 79 -33h3q47 0 79 33q33 32 33 79q0 46 -33 78zM1032 1721q-32 33 -79 33h-3q-47 0 -79 -33q-33 -32 -33 -78q0 -47 33 -79q32 -33 79 -33h3q47 0 79 33q33 32 33 79q0 46 -33 78z" />
<glyph unicode="&#xd7;" horiz-adv-x="842" d="M321 918l-100 101q-39 38 -92 37q-53 0 -91 -37q-37 -38 -37 -91q-1 -53 37 -92l101 -100l-101 -100q-38 -39 -37 -92q0 -53 37 -91q38 -37 91 -37q53 -1 92 37l100 101l100 -101q39 -38 92 -37q53 0 91 37q37 38 37 91q1 53 -37 92l-101 100l101 100q38 39 37 92 q0 53 -37 91q-38 37 -91 37q-53 1 -92 -37z" />
<glyph unicode="&#xd8;" horiz-adv-x="1657" d="M214 1244q-214 -214 -214 -515q0 -302 214 -515q213 -214 515 -214q301 0 515 214q213 213 213 515q0 301 -213 515q-214 213 -515 213q-302 0 -515 -213zM1062 395q-138 -138 -333 -138t-334 138q-138 139 -138 334t138 333q139 138 334 138t333 -138t138 -333 t-138 -334zM1291 1292q22 28 18 63q-3 36 -31 58t-63 18t-58 -31l-991 -1235q-22 -28 -18 -63q4 -36 31 -58q28 -22 63 -18q36 4 58 31z" />
<glyph unicode="&#xd9;" horiz-adv-x="1421" d="M1001 1380q-37 -37 -37 -91v-695q-2 -144 -105 -247q-104 -102 -249 -102t-248 103q-104 103 -105 248v693q0 54 -37 91q-38 38 -91 38q-54 0 -91 -38q-38 -37 -38 -91v-697q2 -250 181 -427t429 -177t429 177t182 427v697q0 54 -38 91q-38 38 -91 38t-91 -38zM599 1567 q28 -20 64 -15q35 6 55 34q21 29 16 64q-6 35 -34 56l-201 146q-28 21 -64 15q-35 -5 -55 -34q-21 -29 -16 -64q6 -35 34 -56z" />
<glyph unicode="&#xda;" horiz-adv-x="1421" d="M1001 1380q-37 -37 -37 -91v-695q-2 -144 -105 -247q-104 -102 -249 -102t-248 103q-104 103 -105 248v693q0 54 -37 91q-38 38 -91 38q-54 0 -91 -38q-38 -37 -38 -91v-697q2 -250 181 -427t429 -177t429 177t182 427v697q0 54 -38 91q-38 38 -91 38t-91 -38zM823 1713 q28 21 34 56q5 35 -16 64q-20 29 -55 34q-36 6 -64 -15l-201 -146q-28 -21 -34 -56q-5 -35 16 -64q20 -28 55 -34q36 -5 64 15z" />
<glyph unicode="&#xdb;" horiz-adv-x="1421" d="M1001 1380q-37 -37 -37 -91v-695q-2 -144 -105 -247q-104 -102 -249 -102t-248 103q-104 103 -105 248v693q0 54 -37 91q-38 38 -91 38q-54 0 -91 -38q-38 -37 -38 -91v-697q2 -250 181 -427t429 -177t429 177t182 427v697q0 54 -38 91q-38 38 -91 38t-91 -38zM334 1684 q-29 -22 -34 -57t16 -63q21 -29 57 -34q35 -5 63 16l174 130l175 -130q28 -21 63 -16t57 34q21 28 16 63t-34 57l-225 168q-23 17 -52 17q-28 0 -51 -17z" />
<glyph unicode="&#xdc;" horiz-adv-x="1421" d="M1001 1380q-37 -37 -37 -91v-695q-2 -144 -105 -247q-104 -102 -249 -102t-248 103q-104 103 -105 248v693q0 54 -37 91q-38 38 -91 38q-54 0 -91 -38q-38 -37 -38 -91v-697q2 -250 181 -427t429 -177t429 177t182 427v697q0 54 -38 91q-38 38 -91 38t-91 -38zM469 1721 q-32 33 -79 33h-3q-47 0 -79 -33q-33 -32 -33 -78q0 -47 33 -79q32 -33 79 -33h3q47 0 79 33q33 32 33 79q0 46 -33 78zM914 1721q-32 33 -79 33h-3q-47 0 -79 -33q-33 -32 -33 -78q0 -47 33 -79q32 -33 79 -33h3q47 0 79 33q33 32 33 79q0 46 -33 78z" />
<glyph unicode="&#xdd;" horiz-adv-x="1398" d="M1032 1416q-52 -12 -80 -57l-353 -565l-353 565q-28 45 -80 57t-97 -16q-45 -29 -57 -81q-12 -51 16 -97l442 -708v-385q0 -54 38 -91q38 -38 91 -38t91 38q37 37 37 91v385l443 708q28 46 16 97q-12 52 -57 81q-45 28 -97 16zM812 1713q28 21 34 56q5 35 -16 64 q-20 29 -55 34q-36 6 -64 -15l-201 -146q-28 -21 -34 -56q-5 -35 16 -64q20 -28 55 -34q36 -5 64 15z" />
<glyph unicode="&#xde;" horiz-adv-x="1162" d="M257 490v500h201q102 0 174 -74q73 -73 73 -176q0 -102 -73 -175q-72 -73 -174 -75h-201zM257 1248v42q0 54 -38 91q-37 38 -90 38q-54 0 -91 -38q-38 -37 -38 -91v-1161q0 -54 38 -91q37 -38 91 -38q53 0 90 38q38 37 38 91v104h205q206 3 353 151q147 149 147 356 q0 208 -148 357q-147 149 -355 151h-202z" />
<glyph unicode="&#xdf;" horiz-adv-x="1251" d="M973 1022q0 180 -141 312q-141 131 -334 131q-177 0 -324 -125q-174 -147 -174 -387v-821q0 -54 38 -91q37 -38 91 -38q53 0 91 38q37 37 37 91v821q0 128 97 200q35 28 79 43q37 12 65 12q92 0 157 -60q60 -56 60 -126q0 -82 -65 -157q-21 -23 -46 -43q-8 -6 -15 -12 q-3 -1 -5 -3h-1v-1q-37 -23 -52 -63q-16 -40 -4 -81q12 -42 46 -68t77 -26q84 0 120 -57q13 -21 19 -48q4 -20 4 -42q0 -67 -33 -107q-43 -54 -140 -57q-53 -2 -90 -40q-36 -39 -35 -93q2 -53 41 -89q39 -37 92 -35q205 7 321 138q102 116 102 283q0 98 -42 185 q-43 92 -122 148q86 126 86 268z" />
<glyph unicode="&#xe0;" horiz-adv-x="1526" d="M450 505l213 473l213 -473h-426zM334 248h653h2l3 1l77 -173q22 -48 72 -67t98 3q49 22 68 71q19 50 -3 99l-524 1162q-31 75 -117 75t-117 -75l-524 -1162q-22 -49 -3 -99q19 -49 67 -71q49 -22 99 -3q49 19 71 67zM651 1567q28 -20 64 -15q35 6 55 34q21 29 16 64 q-6 35 -34 56l-201 146q-28 21 -64 15q-35 -5 -55 -34q-21 -29 -16 -64q6 -35 34 -56z" />
<glyph unicode="&#xe1;" horiz-adv-x="1526" d="M450 505l213 473l213 -473h-426zM334 248h653h2l3 1l77 -173q22 -48 72 -67t98 3q49 22 68 71q19 50 -3 99l-524 1162q-31 75 -117 75t-117 -75l-524 -1162q-22 -49 -3 -99q19 -49 67 -71q49 -22 99 -3q49 19 71 67zM876 1713q28 21 34 56q5 35 -16 64q-20 29 -55 34 q-36 6 -64 -15l-201 -146q-28 -21 -34 -56q-5 -35 16 -64q20 -28 55 -34q36 -5 64 15z" />
<glyph unicode="&#xe2;" horiz-adv-x="1526" d="M450 505l213 473l213 -473h-426zM334 248h653h2l3 1l77 -173q22 -48 72 -67t98 3q49 22 68 71q19 50 -3 99l-524 1162q-31 75 -117 75t-117 -75l-524 -1162q-22 -49 -3 -99q19 -49 67 -71q49 -22 99 -3q49 19 71 67zM386 1704q-29 -22 -34 -57t16 -63q21 -29 57 -34 q35 -5 63 16l174 130l175 -130q28 -21 63 -16t57 34q21 28 16 63t-34 57l-225 168q-23 17 -52 17q-28 0 -51 -17z" />
<glyph unicode="&#xe3;" horiz-adv-x="1526" d="M450 505l213 473l213 -473h-426zM334 248h653h2l3 1l77 -173q22 -48 72 -67t98 3q49 22 68 71q19 50 -3 99l-524 1162q-31 75 -117 75t-117 -75l-524 -1162q-22 -49 -3 -99q19 -49 67 -71q49 -22 99 -3q49 19 71 67zM500 1615q15 4 39 -8l21 -11l21 -12l28 -15l30 -15 q35 -17 66 -25q80 -22 160 5q88 29 148 112q21 29 16 64q-6 35 -35 56t-64 15t-56 -34q-27 -39 -63 -51q-33 -11 -66 0q-25 7 -81 38q-30 17 -47 26q-93 47 -180 14q-32 -12 -65 -36q-12 -9 -25 -21l-12 -10l-10 -9q-26 -24 -28 -59q-2 -36 22 -62t60 -28q35 -2 61 22 q42 38 60 44z" />
<glyph unicode="&#xe4;" horiz-adv-x="1526" d="M450 505l213 473l213 -473h-426zM334 248h653h2l3 1l77 -173q22 -48 72 -67t98 3q49 22 68 71q19 50 -3 99l-524 1162q-31 75 -117 75t-117 -75l-524 -1162q-22 -49 -3 -99q19 -49 67 -71q49 -22 99 -3q49 19 71 67zM521 1721q-32 32 -79 32h-3q-47 0 -79 -32 q-33 -33 -33 -79t33 -79q32 -33 79 -33h3q47 0 79 33q33 33 33 79t-33 79zM966 1721q-32 32 -79 32h-3q-47 0 -79 -32q-33 -33 -33 -79t33 -79q32 -33 79 -33h3q47 0 79 33q33 33 33 79t-33 79z" />
<glyph unicode="&#xe5;" horiz-adv-x="1526" d="M450 505l213 473l213 -473h-426zM716 1496q-22 -22 -53 -22q-32 0 -54 22t-22 54q0 31 22 53t54 22q31 0 53 -22t22 -53q0 -32 -22 -54zM819 1394q64 64 64 156q0 91 -64 156q-65 64 -156 64q-92 0 -156 -64q-65 -65 -65 -156q0 -92 65 -156q21 -22 46 -36q-4 -7 -7 -14 l-524 -1162q-22 -49 -3 -99q19 -49 67 -71q49 -22 99 -3q49 19 71 67l78 172h655l3 1l77 -173q22 -48 72 -67t98 3q49 22 68 71q19 50 -3 99l-524 1162q-3 7 -7 14q25 15 46 36z" />
<glyph unicode="&#xe6;" horiz-adv-x="2015" d="M450 505l296 658h138v-658h-434zM1141 258v326h414q53 0 91 38t38 91t-38 91t-91 38h-414v320h545q53 0 91 38t38 91t-38 91q-38 37 -91 37h-674h-4l-5 1h-6h-293q-12 0 -24 -2q-42 5 -79 -15q-38 -20 -55 -59l-524 -1162q-22 -49 -3 -99q19 -49 67 -71q49 -22 98 -3 q50 19 72 67l78 172h550v-119q0 -53 37 -91q38 -38 91 -38h674q53 0 91 38t38 91t-38 91t-91 38h-545z" />
<glyph unicode="&#xe7;" horiz-adv-x="1463" d="M603 -53l-2 -5q-2 -5 -3 -8q-9 -31 5 -59t43 -41q6 -5 18 -13q12 -9 20 -16q6 -11 2 -27q-16 -74 -82 -105q-34 -16 -72 -16q-34 0 -56 12q-32 17 -66 7t-50 -41q-17 -32 -7 -66t41 -50q60 -33 137 -33t145 32q144 66 178 224q20 94 -35 170l-1 1l-2 2q-3 3 -6 7 q-11 11 -23 22l16 40q235 22 415 186q40 36 42 89q3 54 -33 93t-89 42q-53 2 -92 -33q-135 -123 -317 -123q-195 0 -334 138q-138 139 -138 334t138 333q139 138 334 138q169 0 299 -108q42 -34 95 -29q53 6 86 47q34 41 29 94t-46 87q-201 166 -463 166q-302 0 -515 -213 q-214 -214 -214 -515q0 -302 214 -515q173 -174 405 -207q-13 -32 -16 -41z" />
<glyph unicode="&#xe8;" horiz-adv-x="1131" d="M802 1162q54 0 91 38q38 37 38 90q0 54 -38 91q-37 38 -91 38h-673q-54 0 -91 -38q-38 -37 -38 -91v-1161q0 -54 38 -91q37 -38 91 -38h673q54 0 91 38q38 37 38 91q0 53 -38 91q-37 37 -91 37h-545v327h414q54 0 91 38q38 37 38 91q0 53 -38 90q-37 38 -91 38h-414v321 h545zM454 1567q28 -20 64 -15q35 6 55 34q21 29 16 64q-6 35 -34 56l-201 146q-28 21 -64 15q-35 -5 -55 -34q-21 -29 -16 -64q6 -35 34 -56z" />
<glyph unicode="&#xe9;" horiz-adv-x="1131" d="M802 1162q54 0 91 38q38 37 38 90q0 54 -38 91q-37 38 -91 38h-673q-54 0 -91 -38q-38 -37 -38 -91v-1161q0 -54 38 -91q37 -38 91 -38h673q54 0 91 38q38 37 38 91q0 53 -38 91q-37 37 -91 37h-545v327h414q54 0 91 38q38 37 38 91q0 53 -38 90q-37 38 -91 38h-414v321 h545zM678 1713q28 21 34 56q5 35 -16 64q-20 29 -55 34q-36 6 -64 -15l-201 -146q-28 -21 -34 -56q-5 -35 16 -64q20 -28 55 -34q36 -5 64 15z" />
<glyph unicode="&#xea;" horiz-adv-x="1131" d="M802 1162q54 0 91 38q38 37 38 90q0 54 -38 91q-37 38 -91 38h-673q-54 0 -91 -38q-38 -37 -38 -91v-1161q0 -54 38 -91q37 -38 91 -38h673q54 0 91 38q38 37 38 91q0 53 -38 91q-37 37 -91 37h-545v327h414q54 0 91 38q38 37 38 91q0 53 -38 90q-37 38 -91 38h-414v321 h545zM189 1684q-29 -22 -34 -57t16 -63q21 -29 57 -34q35 -5 63 16l174 130l175 -130q28 -21 63 -16t57 34q21 28 16 63t-34 57l-225 168q-23 17 -52 17q-28 0 -51 -17z" />
<glyph unicode="&#xeb;" horiz-adv-x="1131" d="M802 1162q54 0 91 38q38 37 38 90q0 54 -38 91q-37 38 -91 38h-673q-54 0 -91 -38q-38 -37 -38 -91v-1161q0 -54 38 -91q37 -38 91 -38h673q54 0 91 38q38 37 38 91q0 53 -38 91q-37 37 -91 37h-545v327h414q54 0 91 38q38 37 38 91q0 53 -38 90q-37 38 -91 38h-414v321 h545zM324 1721q-32 33 -79 33h-3q-47 0 -80 -33q-32 -33 -32 -78q0 -47 32 -80q33 -32 80 -32h3q47 0 79 32q33 33 33 80q0 45 -33 78zM769 1721q-32 33 -79 33h-3q-47 0 -80 -33q-32 -33 -32 -78q0 -47 32 -80q33 -32 80 -32h3q47 0 79 32q33 33 33 80q0 45 -33 78z" />
<glyph unicode="&#xec;" horiz-adv-x="457" d="M38 1381q-38 -37 -38 -91v-1161q0 -54 38 -91q37 -38 91 -38q53 0 90 38q38 37 38 91v1161q0 54 -38 91q-37 38 -90 38q-54 0 -91 -38zM83 1565q28 -20 64 -15q35 6 55 34q21 29 16 64q-6 35 -34 56l-201 146q-28 21 -64 15q-35 -5 -55 -34q-21 -29 -16 -64q6 -35 34 -56 z" />
<glyph unicode="&#xed;" horiz-adv-x="457" d="M38 1381q-38 -37 -38 -91v-1161q0 -54 38 -91q37 -38 91 -38q53 0 90 38q38 37 38 91v1161q0 54 -38 91q-37 38 -90 38q-54 0 -91 -38zM341 1713q28 21 34 56q5 35 -16 64q-20 29 -55 34q-36 6 -64 -15l-201 -146q-28 -21 -34 -56q-5 -35 16 -64q20 -28 55 -34 q36 -5 64 15z" />
<glyph unicode="&#xee;" horiz-adv-x="457" d="M38 1381q-38 -37 -38 -91v-1161q0 -54 38 -91q37 -38 91 -38q53 0 90 38q38 37 38 91v1161q0 54 -38 91q-37 38 -90 38q-54 0 -91 -38zM-148 1684q-29 -22 -34 -57t16 -63q21 -29 57 -34q35 -5 63 16l174 130l175 -130q28 -21 63 -16t57 34q21 28 16 63t-34 57l-225 168 q-23 17 -52 17q-28 0 -51 -17z" />
<glyph unicode="&#xef;" horiz-adv-x="457" d="M38 1381q-38 -37 -38 -91v-1161q0 -54 38 -91q37 -38 91 -38q53 0 90 38q38 37 38 91v1161q0 54 -38 91q-37 38 -90 38q-54 0 -91 -38zM-13 1721q-33 33 -80 33h-2q-47 0 -80 -33q-32 -32 -32 -78q0 -47 32 -79q33 -33 80 -33h2q47 0 80 33q32 32 32 79q0 46 -32 78z M432 1721q-33 33 -80 33h-2q-47 0 -80 -33q-32 -32 -32 -78q0 -47 32 -79q33 -33 80 -33h2q47 0 80 33q32 32 32 79q0 46 -32 78z" />
<glyph unicode="&#xf0;" horiz-adv-x="1458" d="M256 795v367h295q185 -1 317 -134t132 -318t-131 -318q-132 -133 -318 -135h-295v367h294q35 0 60 25q26 25 26 61q0 35 -26 60q-25 25 -60 25h-294zM-38 795q-36 0 -61 -25t-25 -60q0 -36 25 -61t61 -25h37v-495q0 -54 38 -91q37 -38 91 -38h428q290 3 496 211 q206 209 206 499q0 291 -207 499t-499 210h-424q-54 0 -91 -37q-38 -38 -38 -91v-496h-37z" />
<glyph unicode="&#xf1;" horiz-adv-x="1390" d="M971 1382q-38 -38 -38 -91v-797l-704 877q-26 32 -65 43q-40 11 -78 -2q-39 -14 -62 -47q-24 -33 -24 -74v-1162q0 -54 38 -91q37 -38 91 -38q53 0 90 38q38 37 38 91v796l705 -877q25 -32 65 -43q39 -11 78 2q38 14 62 47q23 34 23 75v1162q0 53 -37 91q-38 37 -91 37 t-91 -37zM432 1624q15 4 39 -8l21 -11l21 -12l28 -15l30 -15q35 -17 66 -25q80 -22 160 5q88 29 148 112q21 29 16 64q-6 35 -35 56t-64 15t-56 -34q-27 -39 -63 -51q-33 -11 -66 0q-25 7 -81 38q-30 17 -47 26q-93 47 -180 14q-32 -12 -65 -36q-12 -9 -25 -21l-12 -10 l-10 -9q-26 -24 -28 -59q-2 -36 22 -62t60 -28q35 -2 61 22q42 38 60 44z" />
<glyph unicode="&#xf2;" horiz-adv-x="1657" d="M395 375q-138 139 -138 334t138 333q139 138 334 138t333 -138t138 -333t-138 -334q-138 -138 -333 -138t-334 138zM214 1224q-214 -214 -214 -515q0 -302 214 -515q213 -214 515 -214q301 0 515 214q213 213 213 515q0 301 -213 515q-214 213 -515 213q-302 0 -515 -213 zM716 1567q28 -20 64 -15q35 6 55 34q21 29 16 64q-6 35 -34 56l-201 146q-28 21 -64 15q-35 -5 -55 -34q-21 -29 -16 -64q6 -35 34 -56z" />
<glyph unicode="&#xf3;" horiz-adv-x="1657" d="M395 375q-138 139 -138 334t138 333q139 138 334 138t333 -138t138 -333t-138 -334q-138 -138 -333 -138t-334 138zM214 1224q-214 -214 -214 -515q0 -302 214 -515q213 -214 515 -214q301 0 515 214q213 213 213 515q0 301 -213 515q-214 213 -515 213q-302 0 -515 -213 zM942 1709q28 21 34 56q5 35 -16 64q-20 29 -55 34q-36 6 -64 -15l-201 -146q-28 -21 -34 -56q-5 -35 16 -64q20 -28 55 -34q36 -5 64 15z" />
<glyph unicode="&#xf4;" horiz-adv-x="1657" d="M395 375q-138 139 -138 334t138 333q139 138 334 138t333 -138t138 -333t-138 -334q-138 -138 -333 -138t-334 138zM214 1224q-214 -214 -214 -515q0 -302 214 -515q213 -214 515 -214q301 0 515 214q213 213 213 515q0 301 -213 515q-214 213 -515 213q-302 0 -515 -213 zM452 1684q-29 -22 -34 -57t16 -63q21 -29 57 -34q35 -5 63 16l174 130l175 -130q28 -21 63 -16t57 34q21 28 16 63t-34 57l-225 168q-23 17 -52 17q-28 0 -51 -17z" />
<glyph unicode="&#xf5;" horiz-adv-x="1657" d="M395 375q-138 139 -138 334t138 333q139 138 334 138t333 -138t138 -333t-138 -334q-138 -138 -333 -138t-334 138zM214 1224q-214 -214 -214 -515q0 -302 214 -515q213 -214 515 -214q301 0 515 214q213 213 213 515q0 301 -213 515q-214 213 -515 213q-302 0 -515 -213 zM565 1625q15 4 39 -8l21 -11l21 -12l28 -15l30 -15q35 -17 66 -25q80 -22 160 5q88 29 148 112q21 29 16 64q-6 35 -35 56t-64 15t-56 -34q-27 -39 -63 -51q-33 -11 -66 0q-25 7 -81 38q-30 17 -47 26q-93 47 -180 14q-32 -12 -65 -36q-12 -9 -25 -21l-12 -10l-10 -9 q-26 -24 -28 -59q-2 -36 22 -62t60 -28q35 -2 61 22q42 38 60 44z" />
<glyph unicode="&#xf6;" horiz-adv-x="1657" d="M395 375q-138 139 -138 334t138 333q139 138 334 138t333 -138t138 -333t-138 -334q-138 -138 -333 -138t-334 138zM214 1224q-214 -214 -214 -515q0 -302 214 -515q213 -214 515 -214q301 0 515 214q213 213 213 515q0 301 -213 515q-214 213 -515 213q-302 0 -515 -213 zM587 1722q-33 32 -80 32h-2q-47 0 -80 -32q-32 -33 -32 -79q0 -47 32 -79q33 -33 80 -33h2q47 0 80 33q32 32 32 79q0 46 -32 79zM1032 1722q-33 32 -80 32h-2q-47 0 -80 -32q-32 -33 -32 -79q0 -47 32 -79q33 -33 80 -33h2q47 0 80 33q32 32 32 79q0 46 -32 79z" />
<glyph unicode="&#xf7;" horiz-adv-x="1000" d="M290 519q-41 -40 -41 -98q0 -59 41 -99q40 -41 99 -41q57 0 97 41q42 40 42 99q0 58 -42 98q-40 41 -97 41q-59 0 -99 -41zM290 1147q-41 -40 -41 -98q0 -59 41 -99q40 -41 99 -41q57 0 97 41q42 40 42 99q0 58 -42 98q-40 41 -97 41q-59 0 -99 -41zM129 864 q-54 0 -91 -38q-38 -37 -38 -90q0 -54 38 -91q37 -38 91 -38h542q54 0 91 38q38 37 38 91q0 53 -38 90q-37 38 -91 38h-542z" />
<glyph unicode="&#xf8;" horiz-adv-x="1657" d="M214 1244q-214 -214 -214 -515q0 -302 214 -515q213 -214 515 -214q301 0 515 214q213 213 213 515q0 301 -213 515q-214 213 -515 213q-302 0 -515 -213zM1062 395q-138 -138 -333 -138t-334 138q-138 139 -138 334t138 333q139 138 334 138t333 -138t138 -333 t-138 -334zM1291 1292q22 28 18 63q-3 36 -31 58t-63 18t-58 -31l-991 -1235q-22 -28 -18 -63q4 -36 31 -58q28 -22 63 -18q36 4 58 31z" />
<glyph unicode="&#xf9;" horiz-adv-x="1421" d="M1001 1380q-37 -37 -37 -91v-695q-2 -144 -105 -247q-104 -102 -249 -102t-248 103q-104 103 -105 248v693q0 54 -37 91q-38 38 -91 38q-54 0 -91 -38q-38 -37 -38 -91v-697q2 -250 181 -427t429 -177t429 177t182 427v697q0 54 -38 91q-38 38 -91 38t-91 -38zM599 1567 q28 -20 64 -15q35 6 55 34q21 29 16 64q-6 35 -34 56l-201 146q-28 21 -64 15q-35 -5 -55 -34q-21 -29 -16 -64q6 -35 34 -56z" />
<glyph unicode="&#xfa;" horiz-adv-x="1421" d="M1001 1380q-37 -37 -37 -91v-695q-2 -144 -105 -247q-104 -102 -249 -102t-248 103q-104 103 -105 248v693q0 54 -37 91q-38 38 -91 38q-54 0 -91 -38q-38 -37 -38 -91v-697q2 -250 181 -427t429 -177t429 177t182 427v697q0 54 -38 91q-38 38 -91 38t-91 -38zM823 1713 q28 21 34 56q5 35 -16 64q-20 29 -55 34q-36 6 -64 -15l-201 -146q-28 -21 -34 -56q-5 -35 16 -64q20 -28 55 -34q36 -5 64 15z" />
<glyph unicode="&#xfb;" horiz-adv-x="1421" d="M1001 1380q-37 -37 -37 -91v-695q-2 -144 -105 -247q-104 -102 -249 -102t-248 103q-104 103 -105 248v693q0 54 -37 91q-38 38 -91 38q-54 0 -91 -38q-38 -37 -38 -91v-697q2 -250 181 -427t429 -177t429 177t182 427v697q0 54 -38 91q-38 38 -91 38t-91 -38zM334 1684 q-29 -22 -34 -57t16 -63q21 -29 57 -34q35 -5 63 16l174 130l175 -130q28 -21 63 -16t57 34q21 28 16 63t-34 57l-225 168q-23 17 -52 17q-28 0 -51 -17z" />
<glyph unicode="&#xfc;" horiz-adv-x="1421" d="M1001 1380q-37 -37 -37 -91v-695q-2 -144 -105 -247q-104 -102 -249 -102t-248 103q-104 103 -105 248v693q0 54 -37 91q-38 38 -91 38q-54 0 -91 -38q-38 -37 -38 -91v-697q2 -250 181 -427t429 -177t429 177t182 427v697q0 54 -38 91q-38 38 -91 38t-91 -38zM469 1722 q-32 32 -79 32h-3q-47 0 -79 -32q-33 -33 -33 -79q0 -47 33 -79q32 -33 79 -33h3q47 0 79 33q33 32 33 79q0 46 -33 79zM914 1722q-32 32 -79 32h-3q-47 0 -79 -32q-33 -33 -33 -79q0 -47 33 -79q32 -33 79 -33h3q47 0 79 33q33 32 33 79q0 46 -33 79z" />
<glyph unicode="&#xfd;" horiz-adv-x="1398" d="M1032 1416q-52 -12 -80 -57l-353 -565l-353 565q-28 45 -80 57t-97 -16q-45 -29 -57 -81q-12 -51 16 -97l442 -708v-385q0 -54 38 -91q38 -38 91 -38t91 38q37 37 37 91v385l443 708q28 46 16 97q-12 52 -57 81q-45 28 -97 16zM812 1713q28 21 34 56q5 35 -16 64 q-20 29 -55 34q-36 6 -64 -15l-201 -146q-28 -21 -34 -56q-5 -35 16 -64q20 -28 55 -34q36 -5 64 15z" />
<glyph unicode="&#xfe;" horiz-adv-x="1162" d="M257 490v500h201q102 0 174 -74q73 -73 73 -176q0 -102 -73 -175q-72 -73 -174 -75h-201zM257 1248v42q0 54 -38 91q-37 38 -90 38q-54 0 -91 -38q-38 -37 -38 -91v-1161q0 -54 38 -91q37 -38 91 -38q53 0 90 38q38 37 38 91v104h205q206 3 353 151q147 149 147 356 q0 208 -148 357q-147 149 -355 151h-202z" />
<glyph unicode="&#xff;" horiz-adv-x="1398" d="M1032 1416q-52 -12 -80 -57l-353 -565l-353 565q-28 45 -80 57t-97 -16q-45 -29 -57 -81q-12 -51 16 -97l442 -708v-385q0 -54 38 -91q38 -38 91 -38t91 38q37 37 37 91v385l443 708q28 46 16 97q-12 52 -57 81q-45 28 -97 16zM457 1720q-32 33 -79 33h-3q-47 0 -79 -33 q-33 -32 -33 -78q0 -47 33 -80q32 -32 79 -32h3q47 0 79 32q33 33 33 80q0 46 -33 78zM902 1720q-32 33 -79 33h-3q-47 0 -79 -33q-33 -32 -33 -78q0 -47 33 -80q32 -32 79 -32h3q47 0 79 32q33 33 33 80q0 46 -33 78z" />
<glyph unicode="&#x104;" horiz-adv-x="1526" d="M450 505l213 473l213 -473h-426zM1074 58q-76 -120 -74 -229q3 -138 124 -226q29 -20 64 -15q35 6 56 35q20 29 15 64q-6 35 -35 55q-31 23 -43 49q-9 19 -10 41q-1 63 55 146q16 24 35 46q17 21 41 65t2 93l-34 75l-490 1087q-31 75 -117 75t-117 -75l-524 -1162 q-22 -49 -3 -99q19 -49 67 -71q49 -22 99 -3q49 19 71 67l78 172h655l3 1l77 -173q3 -7 7 -14z" />
<glyph unicode="&#x105;" horiz-adv-x="1526" d="M450 505l213 473l213 -473h-426zM1074 58q-76 -120 -74 -229q3 -138 124 -226q29 -20 64 -15q35 6 56 35q20 29 15 64q-6 35 -35 55q-31 23 -43 49q-9 19 -10 41q-1 63 55 146q16 24 35 46q17 21 41 65t2 93l-34 75l-490 1087q-31 75 -117 75t-117 -75l-524 -1162 q-22 -49 -3 -99q19 -49 67 -71q49 -22 99 -3q49 19 71 67l78 172h655l3 1l77 -173q3 -7 7 -14z" />
<glyph unicode="&#x106;" horiz-adv-x="1463" d="M729 238q-195 0 -334 138q-138 139 -138 334t138 333q139 138 334 138q169 0 299 -108q42 -34 95 -29q53 6 86 47q34 41 29 94t-46 87q-201 166 -463 166q-302 0 -515 -213q-214 -214 -214 -515q0 -302 214 -515q213 -214 515 -214q281 0 489 189q40 36 42 89 q3 54 -33 93t-89 42q-53 2 -92 -33q-135 -123 -317 -123zM843 1713q28 21 34 56q5 35 -16 64q-20 29 -55 34q-36 6 -64 -15l-201 -146q-28 -21 -34 -56q-5 -35 16 -64q20 -28 55 -34q36 -5 64 15z" />
<glyph unicode="&#x107;" horiz-adv-x="1463" d="M729 238q-195 0 -334 138q-138 139 -138 334t138 333q139 138 334 138q169 0 299 -108q42 -34 95 -29q53 6 86 47q34 41 29 94t-46 87q-201 166 -463 166q-302 0 -515 -213q-214 -214 -214 -515q0 -302 214 -515q213 -214 515 -214q281 0 489 189q40 36 42 89 q3 54 -33 93t-89 42q-53 2 -92 -33q-135 -123 -317 -123zM843 1713q28 21 34 56q5 35 -16 64q-20 29 -55 34q-36 6 -64 -15l-201 -146q-28 -21 -34 -56q-5 -35 16 -64q20 -28 55 -34q36 -5 64 15z" />
<glyph unicode="&#x118;" horiz-adv-x="1131" d="M582 -206q3 -138 124 -226q29 -20 64 -15q35 6 56 35q20 29 15 64q-6 35 -35 55q-31 23 -43 49q-9 19 -10 41q-1 63 55 146q28 41 51 62.5t34 32.5q38 37 38 91q0 53 -38 91q-37 37 -91 37h-545v327h414q54 0 91 38q38 37 38 91q0 53 -38 90q-37 38 -91 38h-414v321h545 q54 0 91 38q38 37 38 90q0 54 -38 91q-37 38 -91 38h-673q-54 0 -91 -38q-38 -37 -38 -91v-1161q0 -54 38 -91q37 -38 91 -38h513q-62 -107 -60 -206z" />
<glyph unicode="&#x119;" horiz-adv-x="1131" d="M582 -206q3 -138 124 -226q29 -20 64 -15q35 6 56 35q20 29 15 64q-6 35 -35 55q-31 23 -43 49q-9 19 -10 41q-1 63 55 146q28 41 51 62.5t34 32.5q38 37 38 91q0 53 -38 91q-37 37 -91 37h-545v327h414q54 0 91 38q38 37 38 91q0 53 -38 90q-37 38 -91 38h-414v321h545 q54 0 91 38q38 37 38 90q0 54 -38 91q-37 38 -91 38h-673q-54 0 -91 -38q-38 -37 -38 -91v-1161q0 -54 38 -91q37 -38 91 -38h513q-62 -107 -60 -206z" />
<glyph unicode="&#x131;" horiz-adv-x="457" d="M38 1381q-38 -37 -38 -91v-1161q0 -54 38 -91q37 -38 91 -38q53 0 90 38q38 37 38 91v1161q0 54 -38 91q-37 38 -90 38q-54 0 -91 -38z" />
<glyph unicode="&#x141;" horiz-adv-x="1046" d="M258 1290q0 54 -38 91q-38 38 -91 38t-91 -38q-37 -37 -37 -91v-634l-140 -122q-27 -23 -29 -59q-2 -35 21 -62q24 -26 59 -29q36 -2 62 22l27 24v-301q0 -54 37 -91q38 -38 91 -38h588q54 0 91 38q38 37 38 91q0 53 -38 91q-37 37 -91 37h-459v397l345 301q27 23 29 59 q2 35 -21 62q-24 26 -59 28q-36 3 -62 -21l-232 -202v409z" />
<glyph unicode="&#x142;" horiz-adv-x="1046" d="M258 1290q0 54 -38 91q-38 38 -91 38t-91 -38q-37 -37 -37 -91v-634l-140 -122q-27 -23 -29 -59q-2 -35 21 -62q24 -26 59 -29q36 -2 62 22l27 24v-301q0 -54 37 -91q38 -38 91 -38h588q54 0 91 38q38 37 38 91q0 53 -38 91q-37 37 -91 37h-459v397l345 301q27 23 29 59 q2 35 -21 62q-24 26 -59 28q-36 3 -62 -21l-232 -202v409z" />
<glyph unicode="&#x143;" horiz-adv-x="1390" d="M971 1382q-38 -38 -38 -91v-797l-704 877q-26 32 -65 43q-40 11 -78 -2q-39 -14 -62 -47q-24 -33 -24 -74v-1162q0 -54 38 -91q37 -38 91 -38q53 0 90 38q38 37 38 91v796l705 -877q25 -32 65 -43q39 -11 78 2q38 14 62 47q23 34 23 75v1162q0 53 -37 91q-38 37 -91 37 t-91 -37zM808 1712q28 21 34 56q5 35 -16 64q-20 29 -55 34q-36 6 -64 -15l-201 -146q-28 -21 -34 -56q-5 -35 16 -64q20 -28 55 -34q36 -5 64 15z" />
<glyph unicode="&#x144;" horiz-adv-x="1390" d="M971 1382q-38 -38 -38 -91v-797l-704 877q-26 32 -65 43q-40 11 -78 -2q-39 -14 -62 -47q-24 -33 -24 -74v-1162q0 -54 38 -91q37 -38 91 -38q53 0 90 38q38 37 38 91v796l705 -877q25 -32 65 -43q39 -11 78 2q38 14 62 47q23 34 23 75v1162q0 53 -37 91q-38 37 -91 37 t-91 -37zM808 1712q28 21 34 56q5 35 -16 64q-20 29 -55 34q-36 6 -64 -15l-201 -146q-28 -21 -34 -56q-5 -35 16 -64q20 -28 55 -34q36 -5 64 15z" />
<glyph unicode="&#x147;" horiz-adv-x="1390" d="M971 1382q-38 -38 -38 -91v-797l-704 877q-26 32 -65 43q-40 11 -78 -2q-39 -14 -62 -47q-24 -33 -24 -74v-1162q0 -54 38 -91q37 -38 91 -38q53 0 90 38q38 37 38 91v796l705 -877q25 -32 65 -43q39 -11 78 2q38 14 62 47q23 34 23 75v1162q0 53 -37 91q-38 37 -91 37 t-91 -37zM544 1546q23 -17 51 -17q29 0 52 17l225 168q29 22 34 57t-16 63q-22 29 -57 34t-63 -16l-175 -130l-174 130q-28 21 -63 16q-36 -5 -57 -34q-21 -28 -16 -63t34 -57z" />
<glyph unicode="&#x148;" horiz-adv-x="1390" d="M971 1382q-38 -38 -38 -91v-797l-704 877q-26 32 -65 43q-40 11 -78 -2q-39 -14 -62 -47q-24 -33 -24 -74v-1162q0 -54 38 -91q37 -38 91 -38q53 0 90 38q38 37 38 91v796l705 -877q25 -32 65 -43q39 -11 78 2q38 14 62 47q23 34 23 75v1162q0 53 -37 91q-38 37 -91 37 t-91 -37zM544 1546q23 -17 51 -17q29 0 52 17l225 168q29 22 34 57t-16 63q-22 29 -57 34t-63 -16l-175 -130l-174 130q-28 21 -63 16q-36 -5 -57 -34q-21 -28 -16 -63t34 -57z" />
<glyph unicode="&#x152;" horiz-adv-x="2357" d="M395 377q-138 139 -138 334t138 333q139 138 334 138t333 -138t138 -333t-138 -334q-138 -138 -333 -138t-334 138zM2028 1153q54 0 91 38q38 38 38 100q0 53 -38 91q-37 38 -91 38h-673q-54 0 -91 -38q-38 -38 -38 -91v-49q-210 197 -497 197q-302 0 -515 -213 q-214 -214 -214 -515q0 -302 214 -515q213 -214 515 -214q287 0 497 197v-50q0 -53 38 -91q37 -37 91 -37h673q54 0 91 37q38 38 38 91q0 44 -38 82q-37 38 -91 38h-545v326h414q54 0 91 38q38 38 38 91t-38 91q-37 38 -91 38h-414v320h545z" />
<glyph unicode="&#x153;" horiz-adv-x="2357" d="M395 377q-138 139 -138 334t138 333q139 138 334 138t333 -138t138 -333t-138 -334q-138 -138 -333 -138t-334 138zM2028 1153q54 0 91 38q38 38 38 100q0 53 -38 91q-37 38 -91 38h-673q-54 0 -91 -38q-38 -38 -38 -91v-49q-210 197 -497 197q-302 0 -515 -213 q-214 -214 -214 -515q0 -302 214 -515q213 -214 515 -214q287 0 497 197v-50q0 -53 38 -91q37 -37 91 -37h673q54 0 91 37q38 38 38 91q0 44 -38 82q-37 38 -91 38h-545v326h414q54 0 91 38q38 38 38 91t-38 91q-37 38 -91 38h-414v320h545z" />
<glyph unicode="&#x158;" horiz-adv-x="1203" d="M257 732v430h277q87 -1 150 -64q62 -63 62 -151t-62 -151q-63 -63 -151 -64h-276zM866 1279q-138 139 -331 140h-380h-7l-6 -1l-7 1h-6q-54 0 -91 -37q-38 -38 -38 -91v-1162q0 -54 38 -91q37 -38 91 -38q53 0 90 38q38 37 38 91v346h169l320 -424q33 -42 85 -50 q53 -7 96 25q42 32 49 85q8 53 -25 95l-232 308q127 55 205 171q79 119 79 262q0 194 -137 332zM450 1545q23 -17 51 -17q29 0 52 17l225 168q29 22 34 57t-16 63q-22 29 -57 34t-63 -16l-175 -130l-174 130q-28 21 -63 16q-36 -5 -57 -34q-21 -28 -16 -63t34 -57z" />
<glyph unicode="&#x159;" horiz-adv-x="1203" d="M257 732v430h277q87 -1 150 -64q62 -63 62 -151t-62 -151q-63 -63 -151 -64h-276zM866 1279q-138 139 -331 140h-380h-7l-6 -1l-7 1h-6q-54 0 -91 -37q-38 -38 -38 -91v-1162q0 -54 38 -91q37 -38 91 -38q53 0 90 38q38 37 38 91v346h169l320 -424q33 -42 85 -50 q53 -7 96 25q42 32 49 85q8 53 -25 95l-232 308q127 55 205 171q79 119 79 262q0 194 -137 332zM450 1545q23 -17 51 -17q29 0 52 17l225 168q29 22 34 57t-16 63q-22 29 -57 34t-63 -16l-175 -130l-174 130q-28 21 -63 16q-36 -5 -57 -34q-21 -28 -16 -63t34 -57z" />
<glyph unicode="&#x160;" horiz-adv-x="1131" d="M473 837h-1q-95 7 -151 59q-57 52 -51 127q5 75 68 119q63 43 158 36q79 -5 148 -70q39 -36 93 -34q53 1 89 40q37 39 35 92q-2 54 -41 90q-62 58 -122 89q-82 43 -184 50q-201 14 -344 -99q-144 -112 -157 -295q-13 -182 113 -314t328 -146q84 -6 147 -48q29 -19 42 -45 q18 -35 14 -93q-5 -75 -68 -118q-63 -44 -158 -37q-90 6 -145 62q-37 38 -91 38q-53 0 -91 -37q-37 -38 -38 -91q0 -53 38 -91q123 -124 309 -137q201 -15 344 98q144 113 157 295q17 246 -172 371q-119 79 -269 89zM412 1546q23 -17 51 -17q29 0 52 17l225 168q29 22 34 57 t-16 63q-22 29 -57 34t-63 -16l-175 -130l-174 130q-28 21 -63 16q-36 -5 -57 -34q-21 -28 -16 -63t34 -57z" />
<glyph unicode="&#x161;" horiz-adv-x="1131" d="M473 837h-1q-95 7 -151 59q-57 52 -51 127q5 75 68 119q63 43 158 36q79 -5 148 -70q39 -36 93 -34q53 1 89 40q37 39 35 92q-2 54 -41 90q-62 58 -122 89q-82 43 -184 50q-201 14 -344 -99q-144 -112 -157 -295q-13 -182 113 -314t328 -146q84 -6 147 -48q29 -19 42 -45 q18 -35 14 -93q-5 -75 -68 -118q-63 -44 -158 -37q-90 6 -145 62q-37 38 -91 38q-53 0 -91 -37q-37 -38 -38 -91q0 -53 38 -91q123 -124 309 -137q201 -15 344 98q144 113 157 295q17 246 -172 371q-119 79 -269 89zM412 1546q23 -17 51 -17q29 0 52 17l225 168q29 22 34 57 t-16 63q-22 29 -57 34t-63 -16l-175 -130l-174 130q-28 21 -63 16q-36 -5 -57 -34q-21 -28 -16 -63t34 -57z" />
<glyph unicode="&#x164;" horiz-adv-x="1274" d="M129 1419q-54 0 -91 -38q-38 -37 -38 -91q0 -53 38 -90q37 -38 91 -38h279v-1033q0 -54 38 -91q38 -38 91 -38t91 38q37 37 37 91v1033h280q53 0 91 38q38 37 38 90q0 54 -38 91q-38 38 -91 38h-816zM486 1546q23 -17 51 -17q29 0 52 17l225 168q29 22 34 57t-16 63 q-22 29 -57 34t-63 -16l-175 -130l-174 130q-28 21 -63 16q-36 -5 -57 -34q-21 -28 -16 -63t34 -57z" />
<glyph unicode="&#x165;" horiz-adv-x="1274" d="M129 1419q-54 0 -91 -38q-38 -37 -38 -91q0 -53 38 -90q37 -38 91 -38h279v-1033q0 -54 38 -91q38 -38 91 -38t91 38q37 37 37 91v1033h280q53 0 91 38q38 37 38 90q0 54 -38 91q-38 38 -91 38h-816zM486 1546q23 -17 51 -17q29 0 52 17l225 168q29 22 34 57t-16 63 q-22 29 -57 34t-63 -16l-175 -130l-174 130q-28 21 -63 16q-36 -5 -57 -34q-21 -28 -16 -63t34 -57z" />
<glyph unicode="&#x178;" horiz-adv-x="1398" />
<glyph unicode="&#x179;" horiz-adv-x="1317" d="M398 257l674 960q45 63 9 133q-36 69 -114 69h-817q-53 0 -91 -38q-37 -37 -37 -91q0 -53 37 -90q38 -38 91 -38h569l-674 -959q-45 -64 -9 -134q36 -69 114 -69h817q53 0 91 38q37 37 37 91q0 53 -37 91q-38 37 -91 37h-569zM771 1713q28 21 34 56q5 35 -16 64 q-20 29 -55 34q-36 6 -64 -15l-201 -146q-28 -21 -34 -56q-5 -35 16 -64q20 -28 55 -34q36 -5 64 15z" />
<glyph unicode="&#x17a;" horiz-adv-x="1317" d="M398 257l674 960q45 63 9 133q-36 69 -114 69h-817q-53 0 -91 -38q-37 -37 -37 -91q0 -53 37 -90q38 -38 91 -38h569l-674 -959q-45 -64 -9 -134q36 -69 114 -69h817q53 0 91 38q37 37 37 91q0 53 -37 91q-38 37 -91 37h-569zM771 1713q28 21 34 56q5 35 -16 64 q-20 29 -55 34q-36 6 -64 -15l-201 -146q-28 -21 -34 -56q-5 -35 16 -64q20 -28 55 -34q36 -5 64 15z" />
<glyph unicode="&#x17b;" horiz-adv-x="1317" d="M398 257l674 960q45 63 9 133q-36 69 -114 69h-817q-53 0 -91 -38q-37 -37 -37 -91q0 -53 37 -90q38 -38 91 -38h569l-674 -959q-45 -64 -9 -134q36 -69 114 -69h817q53 0 91 38q37 37 37 91q0 53 -37 91q-38 37 -91 37h-569zM665 1736q-32 33 -79 33h-3q-47 0 -79 -33 q-33 -32 -33 -78q0 -47 33 -79q32 -33 79 -33h3q47 0 79 33q33 32 33 79q0 46 -33 78z" />
<glyph unicode="&#x17c;" horiz-adv-x="1317" d="M398 257l674 960q45 63 9 133q-36 69 -114 69h-817q-53 0 -91 -38q-37 -37 -37 -91q0 -53 37 -90q38 -38 91 -38h569l-674 -959q-45 -64 -9 -134q36 -69 114 -69h817q53 0 91 38q37 37 37 91q0 53 -37 91q-38 37 -91 37h-569zM666 1737q-33 32 -80 32h-2q-47 0 -80 -32 q-33 -33 -33 -79t33 -79t80 -33h2q47 0 80 33q32 33 32 79t-32 79z" />
<glyph unicode="&#x17d;" horiz-adv-x="1317" d="M398 257l674 960q45 63 9 133q-36 69 -114 69h-817q-53 0 -91 -38q-37 -37 -37 -91q0 -53 37 -90q38 -38 91 -38h569l-674 -959q-45 -64 -9 -134q36 -69 114 -69h817q53 0 91 38q37 37 37 91q0 53 -37 91q-38 37 -91 37h-569zM507 1546q23 -17 51 -17q29 0 52 17l225 168 q29 22 34 57t-16 63q-22 29 -57 34t-63 -16l-175 -130l-174 130q-28 21 -63 16q-36 -5 -57 -34q-21 -28 -16 -63t34 -57z" />
<glyph unicode="&#x17e;" horiz-adv-x="1317" d="M398 257l674 960q45 63 9 133q-36 69 -114 69h-817q-53 0 -91 -38q-37 -37 -37 -91q0 -53 37 -90q38 -38 91 -38h569l-674 -959q-45 -64 -9 -134q36 -69 114 -69h817q53 0 91 38q37 37 37 91q0 53 -37 91q-38 37 -91 37h-569zM507 1546q23 -17 51 -17q29 0 52 17l225 168 q29 22 34 57t-16 63q-22 29 -57 34t-63 -16l-175 -130l-174 130q-28 21 -63 16q-36 -5 -57 -34q-21 -28 -16 -63t34 -57z" />
<glyph unicode="&#x2c6;" horiz-adv-x="831" d="M39 1702q-29 -22 -34 -57t16 -63q21 -29 57 -34q35 -5 63 16l174 130l175 -130q28 -21 63 -16t57 34q21 28 16 63t-34 57l-225 168q-23 17 -52 17q-28 0 -51 -17z" />
<glyph unicode="&#x2c7;" horiz-adv-x="831" d="M264 1547q23 -17 51 -17q29 0 52 17l225 168q29 22 34 57t-16 63q-22 29 -57 34t-63 -16l-175 -130l-174 130q-28 21 -63 16q-36 -5 -57 -34q-21 -28 -16 -63t34 -57z" />
<glyph unicode="&#x2d8;" horiz-adv-x="816" d="M494 1582q81 52 111 137q11 34 -4 66q-16 32 -50 43q-33 12 -65 -4q-32 -15 -43 -49q-11 -29 -46 -50q-38 -24 -89 -24q-50 0 -89 24q-35 21 -45 50q-12 34 -43 49q-32 16 -66 4q-34 -11 -49 -43q-16 -32 -4 -66q29 -85 111 -137t185 -52q104 0 186 52z" />
<glyph unicode="&#x2d9;" horiz-adv-x="427" d="M194 1739q-32 33 -79 33h-3q-47 0 -79 -33q-33 -32 -33 -78q0 -47 33 -79q32 -33 79 -33h3q47 0 79 33q33 32 33 79q0 46 -33 78z" />
<glyph unicode="&#x2da;" horiz-adv-x="641" d="M65 1907q-65 -65 -65 -156q0 -92 65 -156q64 -65 156 -65q91 0 156 65q64 64 64 156q0 91 -64 156q-65 64 -156 64q-92 0 -156 -64zM274 1697q-22 -22 -53 -22q-32 0 -54 22t-22 54q0 31 22 53t54 22q31 0 53 -22t22 -53q0 -32 -22 -54z" />
<glyph unicode="&#x2db;" horiz-adv-x="585" d="M76 -42q-76 -120 -74 -229q3 -138 124 -226q29 -20 64 -15q35 6 56 35q20 29 15 64q-6 35 -35 55q-31 23 -43 49q-9 19 -10 41q-1 63 55 146q50 74 120 128q28 22 32 57q5 35 -17 63q-22 29 -57 33t-63 -17q-101 -78 -167 -184z" />
<glyph unicode="&#x2dc;" horiz-adv-x="939" d="M205 1626q15 4 39 -8l21 -11l21 -12l28 -15l30 -15q35 -17 66 -25q80 -22 160 5q88 29 148 112q21 29 16 64q-6 35 -35 56t-64 15t-56 -34q-27 -39 -63 -51q-33 -11 -66 0q-25 7 -81 38q-30 17 -47 26q-93 47 -180 14q-32 -12 -65 -36q-12 -9 -25 -21l-12 -10l-10 -9 q-26 -24 -28 -59q-2 -36 22 -62t60 -28q35 -2 61 22q42 38 60 44z" />
<glyph unicode="&#x2dd;" />
<glyph unicode="&#x2000;" horiz-adv-x="985" />
<glyph unicode="&#x2001;" horiz-adv-x="1971" />
<glyph unicode="&#x2002;" horiz-adv-x="985" />
<glyph unicode="&#x2003;" horiz-adv-x="1971" />
<glyph unicode="&#x2004;" horiz-adv-x="657" />
<glyph unicode="&#x2005;" horiz-adv-x="492" />
<glyph unicode="&#x2006;" horiz-adv-x="328" />
<glyph unicode="&#x2007;" horiz-adv-x="328" />
<glyph unicode="&#x2008;" horiz-adv-x="246" />
<glyph unicode="&#x2009;" horiz-adv-x="394" />
<glyph unicode="&#x200a;" horiz-adv-x="109" />
<glyph unicode="&#x2010;" horiz-adv-x="1000" d="M129 864q-54 0 -91 -38q-38 -37 -38 -90q0 -54 38 -91q37 -38 91 -38h542q54 0 91 38q38 37 38 91q0 53 -38 90q-37 38 -91 38h-542z" />
<glyph unicode="&#x2011;" horiz-adv-x="1000" d="M129 864q-54 0 -91 -38q-38 -37 -38 -90q0 -54 38 -91q37 -38 91 -38h542q54 0 91 38q38 37 38 91q0 53 -38 90q-37 38 -91 38h-542z" />
<glyph unicode="&#x2012;" horiz-adv-x="1000" d="M129 864q-54 0 -91 -38q-38 -37 -38 -90q0 -54 38 -91q37 -38 91 -38h542q54 0 91 38q38 37 38 91q0 53 -38 90q-37 38 -91 38h-542z" />
<glyph unicode="&#x2013;" />
<glyph unicode="&#x2014;" />
<glyph unicode="&#x2018;" horiz-adv-x="419" d="M171 1246q1 9 5 15l3 4l2 2l1 1q27 23 30 58q3 36 -20 63t-59 30q-35 3 -62 -20q-68 -58 -71 -147q-4 -96 66 -164q26 -25 61 -25q36 0 60 26q25 25 25 61q0 35 -26 60q-15 15 -15 36z" />
<glyph unicode="&#x2019;" horiz-adv-x="419" d="M41 1236q-1 -9 -5 -15l-3 -4l-2 -2l-1 -1q-27 -23 -30 -58q-3 -36 20 -63t59 -30q35 -3 62 20q68 58 71 147q4 96 -66 164q-26 25 -61 25q-36 0 -60 -26q-25 -25 -25 -61q0 -35 26 -60q15 -15 15 -36z" />
<glyph unicode="&#x201a;" horiz-adv-x="419" d="M41 49q-1 -9 -5 -15l-3 -4l-2 -2l-1 -1q-27 -23 -30 -58q-3 -36 20 -63t59 -30q35 -3 62 20q68 58 71 147q4 96 -66 164q-26 25 -61 25q-36 0 -60 -26q-25 -25 -25 -61q0 -35 26 -60q15 -15 15 -36z" />
<glyph unicode="&#x201c;" d="M420 1244q1 9 5 15l3 4l2 2l1 1q27 23 30 58q3 36 -20 63t-59 30q-35 3 -62 -20q-68 -58 -71 -147q-4 -96 66 -164q26 -25 61 -25q36 0 60 26q25 25 25 61q0 35 -26 60q-15 15 -15 36zM420 1244q1 9 5 15l3 4l2 2l1 1q27 23 30 58q3 36 -20 63t-59 30q-35 3 -62 -20 q-68 -58 -71 -147q-4 -96 66 -164q26 -25 61 -25q36 0 60 26q25 25 25 61q0 35 -26 60q-15 15 -15 36zM171 1244q1 9 5 15l3 4l2 2l1 1q27 23 30 58q3 36 -20 63t-59 30q-35 3 -62 -20q-68 -58 -71 -147q-4 -96 66 -164q26 -25 61 -25q36 0 60 26q25 25 25 61q0 35 -26 60 q-15 15 -15 36z" />
<glyph unicode="&#x201d;" d="M41 1234q-1 -9 -5 -15l-3 -4l-2 -2l-1 -1q-27 -23 -30 -58q-3 -36 20 -63t59 -30q35 -3 62 20q68 58 71 147q4 96 -66 164q-26 25 -61 25q-36 0 -60 -26q-25 -25 -25 -61q0 -35 26 -60q15 -15 15 -36zM41 1234q-1 -9 -5 -15l-3 -4l-2 -2l-1 -1q-27 -23 -30 -58 q-3 -36 20 -63t59 -30q35 -3 62 20q68 58 71 147q4 96 -66 164q-26 25 -61 25q-36 0 -60 -26q-25 -25 -25 -61q0 -35 26 -60q15 -15 15 -36zM290 1234q-1 -9 -5 -15l-3 -4l-2 -2l-1 -1q-27 -23 -30 -58q-3 -36 20 -63t59 -30q35 -3 62 20q68 58 71 147q4 96 -66 164 q-26 25 -61 25q-36 0 -60 -26q-25 -25 -25 -61q0 -35 26 -60q15 -15 15 -36z" />
<glyph unicode="&#x201e;" d="M41 49q-1 -9 -5 -15l-3 -4l-2 -2l-1 -1q-27 -23 -30 -58q-3 -36 20 -63t59 -30q35 -3 62 20q68 58 71 147q4 96 -66 164q-26 25 -61 25q-36 0 -60 -26q-25 -25 -25 -61q0 -35 26 -60q15 -15 15 -36zM41 49q-1 -9 -5 -15l-3 -4l-2 -2l-1 -1q-27 -23 -30 -58q-3 -36 20 -63 t59 -30q35 -3 62 20q68 58 71 147q4 96 -66 164q-26 25 -61 25q-36 0 -60 -26q-25 -25 -25 -61q0 -35 26 -60q15 -15 15 -36zM290 49q-1 -9 -5 -15l-3 -4l-2 -2l-1 -1q-27 -23 -30 -58q-3 -36 20 -63t59 -30q35 -3 62 20q68 58 71 147q4 96 -66 164q-26 25 -61 25 q-36 0 -60 -26q-25 -25 -25 -61q0 -35 26 -60q15 -15 15 -36z" />
<glyph unicode="&#x2020;" />
<glyph unicode="&#x2021;" />
<glyph unicode="&#x2022;" />
<glyph unicode="&#x2026;" />
<glyph unicode="&#x202f;" horiz-adv-x="394" />
<glyph unicode="&#x2039;" />
<glyph unicode="&#x203a;" />
<glyph unicode="&#x2044;" />
<glyph unicode="&#x205f;" horiz-adv-x="492" />
<glyph unicode="&#x20a3;" />
<glyph unicode="&#x20a4;" />
<glyph unicode="&#x20a7;" />
<glyph unicode="&#x20ac;" horiz-adv-x="1427" d="M879 239q-146 0 -267 83q-117 82 -170 214h582q27 0 46 19t19 45q0 27 -19 46t-46 19h-614q-2 23 -2 46q0 25 3 54h613q27 0 46 18q19 19 19 46t-19 45q-19 19 -46 19h-579q54 129 171 208q119 81 263 81q78 0 152 -25q50 -17 98 7q48 23 65 74q17 50 -7 98t-74 65 q-113 38 -234 38q-251 0 -449 -155q-194 -153 -256 -391h-110q-26 0 -45 -19q-19 -18 -19 -45t19 -46q19 -18 45 -18h89q-2 -31 -2 -54q0 -20 1 -46h-88q-26 0 -45 -19t-19 -46q0 -26 19 -45t45 -19h108q60 -241 255 -396q199 -158 452 -158q131 0 254 45q49 19 72 67 q22 48 3 98q-18 50 -66 73q-49 22 -99 3q-79 -29 -164 -29z" />
<glyph unicode="&#x2122;" />
<glyph unicode="&#x2202;" />
<glyph unicode="&#x2206;" />
<glyph unicode="&#x220f;" />
<glyph unicode="&#x2211;" />
<glyph unicode="&#x221a;" />
<glyph unicode="&#x221e;" />
<glyph unicode="&#x222b;" />
<glyph unicode="&#x2248;" />
<glyph unicode="&#x2264;" />
<glyph unicode="&#x2265;" />
<glyph unicode="&#x25fc;" horiz-adv-x="1420" d="M0 1420h1420v-1420h-1420v1420z" />
</font>
</defs>
</svg>
